Ссылка на приватное зеркало всего за 1$. Внимание количество ограничено!!!

iTunes

iTunes

iTunes

1

iTunes

iTunes

iTunes

iTunes

iTunes

30
pack

$ от Little Big

ВАЖНО

!!Акция!!

Alien_RageХит недели

RePack

Resident Evil 21

ИГРА 18+

pack

RePack

jed

!!Акция!!

Alien_Rage

RePack

fifa19

RePack

Assassins Creed: Odyssey

RePack

NEED FOR SPEED™ PAYBACK

4 сезон

9 сезон

Бесстыжие 9 сезон

Все сериалы

все сериалы на PB.wtf

RePack

FAR CRY 5
  

Взрывная блондинка / Atomic Blonde (Дэвид Литч) [2017, боевик, триллер, детектив, WEB-DL 1080p] DUB [iTunes] pb.wtf

Взрывная блондинка через торрент pb.wtf

Раздают: 2 [ 0 KB/s ]
Размер: 7.1 GB | Добавлен: 2 года 8 мес. назад | Торрент скачан:2436 раз
Скачать  

26-10-2017 04:48 Взрывная блондинка Скачать торрент  

Взрывная блондинка / Atomic BlondeГод выпуска: 2017
Страна: Германия, Швеция, США
Жанр: боевик, триллер, детектив
Продолжительность: 01:56:37
Перевод: Дубляж [iTunes]
Субтитры: Русские, английские

Режиссер: Дэвид Литч

rating

В ролях:

Шарлиз Терон, Джеймс МакЭвой, Эдди Марсан, Джон Гудман, Тоби Джонс, Джеймс Фолкнер, Роланд Мюллер, София Бутелла, Билл Скарсгард, Сэм Харгрейв, ...

Описание:

Агент Лоррейн Бротон, бриллиант в короне Секретной разведывательной службы Ее Величества, не просто мастер шпионажа: она бомбически сексуальна, взрывоопасна и использует весь арсенал своих уникальных умений во время невыполнимых миссий. В неспокойном Берлине, куда ее направляют с заданием вернуть бесценное досье, она вынуждена объединиться с агентом под прикрытием Дэвидом Персивалем. Вместе им предстоит проложить путь через тернии смертельных шпионских игр…

Качество: WEB-DL 1080p
Формат: MKV
Видео кодек: H.264
Аудио кодек: AC3

Видео: MPEG-4 AVC, 7765 Кбит/с, 1920x800
Аудио#1: Русский (AC3, 6 ch, 384 Кбит/с)
Аудио#2: английский (E-AC3, 6 ch, 640 Кбит/с)
скриншот   скриншот   скриншот  

Общее
Уникальный идентификатор : 251390438689777344037180440084763461102 (0xBD20099075A85F129F96CD06FD0545EE)
Полное имя : D:\B3PyBHaya.6L0Hd1Hka.2017.D.WEb-DL.1O8Op.mkv
Формат : Matroska
Версия формата : Version 2
Размер файла : 7,10 Гбайт
Продолжительность : 1 ч. 55 м.
Режим общего битрейта : Переменный
Общий поток : 8791 Кбит/сек
Дата кодирования : UTC 2017-10-25 21:34:25
Программа кодирования : mkvmerge v8.3.0 ('Over the Horizon') 64bit
Библиотека кодирования : libebml v1.3.1 + libmatroska v1.4.2

Видео
Идентификатор : 1
Формат : AVC
Формат/Информация : Advanced Video Codec
Профиль формата : High@L4
Параметр CABAC формата : Да
Параметр ReFrames формата : 4 кадра
Идентификатор кодека : V_MPEG4/ISO/AVC
Продолжительность : 1 ч. 55 м.
Вид битрейта : Переменный
Битрейт : 7765 Кбит/сек
Максимальный битрейт : 15,0 Мбит/сек
Ширина : 1920 пикселей
Высота : 800 пикселей
Соотношение сторон : 2,40:1
Режим частоты кадров : Постоянный
Частота кадров : 23,976 (24000/1001) кадра/сек
Цветовое пространство : YUV
Субдискретизация насыщенности : 4:2:0
Битовая глубина : 8 бит
Тип развёртки : Прогрессивная
Бит/(Пиксели*Кадры) : 0.211
Размер потока : 6,27 Гбайт (88%)
Default : Да
Forced : Нет
Цветовой диапазон : Limited
Основные цвета : BT.709
Характеристики трансфера : BT.709
Коэффициенты матрицы : BT.709

Аудио #1
Идентификатор : 2
Формат : AC-3
Формат/Информация : Audio Coding 3
Расширение режима : CM (complete main)
Параметр Endianness формата : Big
Идентификатор кодека : A_AC3
Продолжительность : 1 ч. 55 м.
Вид битрейта : Постоянный
Битрейт : 384 Кбит/сек
Каналы : 6 каналов
Расположение каналов : Front: L C R, Side: L R, LFE
Частота : 48,0 КГц
Частота кадров : 31,250 кадров/сек (1536 spf)
Метод сжатия : С потерями
Размер потока : 317 Мбайт (4%)
Язык : Russian
Default : Да
Forced : Нет

Аудио #2
Идентификатор : 3
Формат : E-AC-3
Формат/Информация : Audio Coding 3
Параметр Endianness формата : Big
Идентификатор кодека : A_EAC3
Продолжительность : 1 ч. 55 м.
Вид битрейта : Постоянный
Битрейт : 640 Кбит/сек
Каналы : 6 каналов
Расположение каналов : Front: L C R, Side: L R, LFE
Частота : 48,0 КГц
Частота кадров : 187,500 кадров/сек (256 spf)
Метод сжатия : С потерями
Размер потока : 529 Мбайт (7%)
Язык : English
Default : Нет
Forced : Нет

Текст #1
Идентификатор : 4
Формат : UTF-8
Идентификатор кодека : S_TEXT/UTF8
Идентификатор кодека/Информация : UTF-8 Plain Text
Продолжительность : 1 ч. 47 м.
Битрейт : 2 бит/сек
Count of elements : 42
Размер потока : 1,64 Кбайт (0%)
Язык : Russian
Default : Да
Forced : Нет

Текст #2
Идентификатор : 5
Формат : UTF-8
Идентификатор кодека : S_TEXT/UTF8
Идентификатор кодека/Информация : UTF-8 Plain Text
Продолжительность : 1 ч. 54 м.
Битрейт : 52 бит/сек
Count of elements : 1612
Размер потока : 44,2 Кбайт (0%)
Язык : English
Default : Нет
Forced : Нет

pb.wtf



Скачать Взрывная блондинка через торрент http://pic1.kartinco.top/images/11/sqncl.jpg Скачать фильм Взрывная блондинка через торрент бесплантно в хорошем качестве Описание: Агент Лоррейн Бротон, бриллиант в короне Секретной разведывательной службы Ее Величества, не просто мастер шпионажа: она ... 9.3 10 57
Info! Золотая раздача, скачанное не засчитывается.
Торрент: Зарегистрирован [2017-10-26 04:48] · скачан: 2 436 раз
Статус: √ проверено
Размер: 7.1 GB
Как cкачать? Как скачать Взрывная блондинка через торрент | qTorrent

% Раздел Тема Автор DL S | L
Ultra HD (UHD: 2K, 4K, 8K) — видео сверхвысокой чёткости [ 43.86 GB ] Взрывная блондинка / Atomic Blonde [2017 UHD BDRemux 2160p] [Dolby Vision TV] bober100 Скачать
1 | 0
Фильмы 2017 [DVDrip, WEB-DLRip, HDrip] (DUB, MVO) [ 2.11 GB ] Взрывная блондинка / Atomic Blonde [2017 WEB-DLRip-AVC] MVO - ExKinoRay Enigma2010 Скачать
1 | 0
Ultra HD (UHD: 2K, 4K, 8K) — видео сверхвысокой чёткости [ 50.03 GB ] Взрывная блондинка / Atomic Blonde [2017 UHD BDRemux 2160p] [Dolby Vision] sheker187 Скачать
1 | 0
Фильмы с авторской озвучкой [ 2.06 GB ] Взрывная блондинка / Убойная блондинка / Atomic Blonde [2017 BDRip] [AVO] killermax2013 Скачать
1 | 0
Фильмы с авторской озвучкой [ 2.3 GB ] Взрывная блондинка / Atomic Blonde [2017 BDRip-AVC] AVO [Есарев] - ExKinoRay Enigma2010 Скачать
1 | 0
Ultra HD (UHD: 2K, 4K, 8K) — видео сверхвысокой чёткости [ 41.32 GB ] Взрывная блондинка / Atomic Blonde [2017 UHD BDRemux 2160p] +MVO [Paradox&Omskbird] bober100 Скачать
1 | 0
Фильмы [HD 720p, 1080p] (Хороший звук DUB, MVO) [ 13.54 GB ] Взрывная блондинка / Atomic Blonde [2017 BDRip 1080p] bober100 Скачать
2 | 0

28-11-2019 20:33  

Отключить всю рекламу на сайте

26-10-2017 05:16 Взрывная блондинка Скачать торрент  

Наконец-то хороший звук !
Помогу с раздачей !!
С золотом будет пободрее !!! pb.wtf



27-10-2017 21:23 Взрывная блондинка Скачать торрент  

Голоса тихие, музыка орет.pb.wtf



29-10-2017 16:30 Взрывная блондинка Скачать торрент  

А че со звуком??? Автор исправь. скачал, скинул на флешку, звук ужасно тихий, на телеке на всю громкость поставил.pb.wtf



29-10-2017 22:18 Взрывная блондинка Скачать торрент  

Да звук жесть тихий, надо на полную выкручивать. Плюс озвучка тише остальных звуков и музыки...приходится прислушиватьсяpb.wtf



30-10-2017 17:10 Взрывная блондинка Скачать торрент  

Начал смотреть на компе, в итоге просто надоело крутить громкость туда сюда, извините, но это просто не возможно смотреть. Голоса тихие, тут бац как музон заорет или звуки громкие. Будем ждать нормальной звуковой дорожки.pb.wtf



08-12-2017 14:18 Взрывная блондинка Скачать торрент  

Фильм-БРЕД.pb.wtf



28-12-2017 22:53 Взрывная блондинка Скачать торрент  

если не считать звук, фильм нормальныйpb.wtf



    Дорогой пользователь! Огромная просьба, поблагодарите релизера, оцените раздачу и оставьте свои комментарий, если Вы скачали Взрывная блондинка через торрент бесплатно! Внесите свою лепту в развитие PiratBit!
    Комментировать посты могут только пользователи прошедшие не сложную регистрацию
    Показать сообщения:    

    Взрывная блондинка через торрент
    Скачать бесплатно Взрывная блондинка
    Взрывная блондинка скачать торрент
    Взрывная блондинка смотреть онлайн
    Cкачать фильм Взрывная блондинка бесплатно
    Взрывная блондинка скачать торрент в хорошем качестве
    Взрывная блондинка смотреть онлайн бесплатно в хорошем качестве


    Вы не можете начинать темы
    Вы не можете отвечать на сообщения
    Вы не можете редактировать свои сообщения
    Вы не можете удалять свои сообщения
    Вы не можете голосовать в опросах
    Вы не можете прикреплять файлы к сообщениям
    Вы можете скачивать файлы