Достать ножи: Стеклянная луковица

MVO

Добыча

Дубляж

Уэнсдэй

1 сезон

Тор

Дубляж

13 клиническая

1 сезон

Жестокая ночь

MVO

Одни из нас

1 сезон

Deluxe

pack

Рекомендуем

30

Пиратка

ВАЖНО

ВАЖНО

Ghostwire

Пиратка

jed

RePack

nioh2

RePack

RDR2

RePack

NEED FOR SPEED™ PAYBACK

RePack

скачать торрент

Кинопоиск HD

Острые козырьки 6 сезон

6 сезон

FAR CRY 6

RePack

скачать торрент

Лицензия

скачать торрент

MVO

1

1 сезон

скачать торрент

1 сезон

скачать торрент

Лицензия

  

Хорошее время / Good Time (Бен Сэфди / Benny Safdie, Джошуа Сэфди / Josh Safdie) [2017, США, триллер, драма, криминал, WEB-DLRip-AVC] MVO [iTunes]

Хорошее время через торрент pb.wtf

Раздают: 1 [ 0 KB/s ]
Размер: 1.58 GB | Добавлен: 5 лет 3 мес. назад | Торрент скачан:884 раза
Смотреть онлайн | Скачать | Поддержите нас   

26-10-2017 07:47 Хорошее время Скачать торрент  

Хорошее время
Good Time


Страна: США
Жанр: триллер, драма, криминал

Год выпуска: 2017
Продолжительность: 01:41:12

Перевод: Профессиональный (многоголосый, закадровый) [iTunes]
Субтитры: нет
Оригинальная аудиодорожка: нет

Режиссер: Бен Сэфди / Benny Safdie, Джошуа Сэфди / Josh Safdie

В ролях: Роберт Паттинсон, Бен Сэфди, Taliah Webster, Дженнифер Джейсон Ли, Баркхад Абди, Рон Браунштейн, Peter Verby, Саида Мансур, Gladys Mathon, Роуз Грегорио, Eric Paykert, Astrid Corrales

Описание:
Отчаявшись найти работу и достать деньги на оплату счетов, Конни планирует ограбление банка. Чтобы осуществить налет, ему обязательно необходим напарник, но ему некого взять с собой кроме своего родного брата Ника, страдающего умственными отклонениями. Конни берет Ника с собой, однако попытка ограбления оборачивается провалом. Ник, чуть замешкавшись, попадает в руки полиции, а у Конни в руках оказывается сумка с деньгами, которая взрывается и пачкает его краской с головы до ног. Чувствуя свою вину за брата, а также понимая, как тяжело Ник будет переносить каждый день без помощи близкого человека, Конни решает, во что бы то ни стало, вытащить брата из рук полиции. В течение одной ночи, полной адреналина, Конни предпринимает отчаянные попытки пробраться к Нику и освободить его.



Релиз:

Автор рипа: stalkerok | Моя группа

Сэмпл

Качество видео: WEB-DLRip-AVC [Good.Time.2O17.P.WEB-DL.1O8Oр]
Формат видео: MKV
Видео кодек: AVC
Аудио кодек: AC3
Видео: 1808 Кбит/сек, 960x402 (2.40:1), 24 кадр/сек, AVC
Аудио: русский, 384 Кбит/сек, 48 КГц, 5.1, AC3
Навигация по главам: есть

x264 [info]: frame I:805 Avg QP:17.47 size: 34405
x264 [info]: frame P:36481 Avg QP:19.03 size: 17447
x264 [info]: frame B:108442 Avg QP:21.57 size: 6833

General
Unique ID : 211687903344321280749664957351078718667 (0x9F419B70E795CAEFB36CEA58AD68ECCB)
Complete name : M:\!Rips2017\Good Time\Good.Time.2017.WEB-DLRip-AVC.RUS.stalkerok.new-team.mkv
Format : Matroska
Format version : Version 4 / Version 2
File size : 1.58 GiB
Duration : 1 h 41 min
Overall bit rate : 2 237 kb/s
Movie name : Good Time (2017) (Rip by stalkerok)
Encoded date : UTC 2017-10-26 07:15:22
Writing application : mkvmerge v8.6.1 ('Flying') 64bit
Writing library : libebml v1.3.3 + libmatroska v1.4.4

Video
ID : 1
Format : AVC
Format/Info : Advanced Video Codec
Format profile : [email protected]
Format settings, CABAC : Yes
Format settings, ReFrames : 14 frames
Codec ID : V_MPEG4/ISO/AVC
Duration : 1 h 41 min
Bit rate : 1 809 kb/s
Width : 960 pixels
Height : 402 pixels
Display aspect ratio : 2.40:1
Frame rate mode : Constant
Frame rate : 24.000 FPS
Color space : YUV
Chroma subsampling : 4:2:0
Bit depth : 8 bits
Scan type : Progressive
Bits/(Pixel*Frame) : 0.195
Stream size : 1.28 GiB (81%)
Title : Good Time (2017) (Rip by stalkerok)
Writing library : x264 core 150 r2833kMod df79067
Encoding settings : cabac=1 / ref=14 / deblock=1:-3:-2 / analyse=0x3:0x133 / me=umh / subme=11 / psy=1 / fade_compensate=0.00 / psy_rd=1.00:0.00 / mixed_ref=1 / me_range=32 / chroma_me=1 / trellis=2 / 8x8dct=1 / cqm=0 / deadzone=21,11 / fast_pskip=0 / chroma_qp_offset=-2 / threads=12 / lookahead_threads=3 / sliced_threads=0 / nr=0 / decimate=1 / interlaced=0 / bluray_compat=0 / constrained_intra=0 / bframes=14 / b_pyramid=2 / b_adapt=2 / b_bias=0 / direct=3 / weightb=1 / open_gop=0 / weightp=2 / keyint=240 / keyint_min=23 / scenecut=40 / intra_refresh=0 / rc_lookahead=60 / rc=crf / mbtree=0 / crf=20.5000 / qcomp=0.65 / qpmin=0 / qpmax=69 / qpstep=4 / vbv_maxrate=50000 / vbv_bufsize=62500 / crf_max=0.0 / nal_hrd=none / filler=0 / ip_ratio=1.40 / pb_ratio=1.30 / aq=3:0.85
Default : Yes
Forced : No

Audio
ID : 2
Format : AC-3
Format/Info : Audio Coding 3
Mode extension : CM (complete main)
Format settings, Endianness : Big
Codec ID : A_AC3
Duration : 1 h 41 min
Bit rate mode : Constant
Bit rate : 384 kb/s
Channel(s) : 6 channels
Channel positions : Front: L C R, Side: L R, LFE
Sampling rate : 48.0 kHz
Frame rate : 31.250 FPS (1536 spf)
Compression mode : Lossy
Stream size : 278 MiB (17%)
Language : Russian
Default : Yes
Forced : No

Menu
00:00:00.000 : en:Глава 1
00:07:02.541 : en:Глава 2
00:13:48.541 : en:Глава 3
00:19:23.082 : en:Глава 4
00:25:58.248 : en:Глава 5
00:31:35.914 : en:Глава 6
00:37:54.539 : en:Глава 7
00:44:07.414 : en:Глава 8
00:49:51.705 : en:Глава 9
00:55:12.413 : en:Глава 10
01:03:11.496 : en:Глава 11
01:10:52.412 : en:Глава 12
01:18:16.662 : en:Глава 13
01:24:06.995 : en:Глава 14
01:29:59.745 : en:Глава 15
скриншот   скриншот   скриншот   скриншот   скриншот   скриншот  



Скачать Хорошее время через торрент http://i6-imageban-ru.translate.goog/out/2017/09/18/2ff75c0c358795c5946784cc1680714d.png Скачать, смотреть онлайн Хорошее время бесплантно в хорошем качестве Описание:Отчаявшись найти работу и достать деньги на оплату счетов, Конни планирует ограбление банка. Чтобы осуществить налет, ему ... 9.3 10 14
Info! Золотая раздача, скачанное не засчитывается.
Торрент: Зарегистрирован [2017-10-26 07:47] · скачан: 884 раз
Статус: √ проверено
Размер: 1.58 GB
Как cкачать? Как скачать Хорошее время через торрент | UTorrent

28-11-2019 20:33  


Отключить вcю реклaмy на сайте, в т.ч. и в плеере онлайн просмотра!

27-10-2017 18:30 Хорошее время Скачать торрент  

Если раздают более 500 человек а качают более 100 и нет ни одного коммента значит фильм зачет =)



14-12-2017 21:41 Хорошее время Скачать торрент  

gaTyxa писал(а):

Если раздают более 500 человек а качают более 100 и нет ни одного коммента значит фильм зачет =)

Нет ни одного коммента просто потому что нет слов )



    Дорогой пользователь! Огромная просьба, поблагодарите релизера, оцените раздачу и оставьте свои комментарий, если Вы скачали Хорошее время через торрент бесплатно!!
    Комментировать посты могут только пользователи прошедшие не сложную регистрацию
    Показать сообщения:    


    Хорошее время через торрент
    Скачать бесплатно Хорошее время
    Хорошее время скачать торрент
    Хорошее время смотреть онлайн
    Cкачать фильм Хорошее время бесплатно
    Хорошее время скачать торрент в хорошем качестве
    Хорошее время смотреть онлайн бесплатно в хорошем качестве
    Вы не можете начинать темы
    Вы не можете отвечать на сообщения
    Вы не можете редактировать свои сообщения
    Вы не можете удалять свои сообщения
    Вы не можете голосовать в опросах
    Вы не можете прикреплять файлы к сообщениям
    Вы можете скачивать файлы
    Хорошее время / Good Time [2017, США, триллер, драма, криминал, WEB-DLRip-AVC] MVO [iTunes] смотреть онлайн, скачать торрент picoco.icu