2 сезон

iTunes

MVO

1

2 сезон

iTunes

iTunes

1 сезон

RePack

30

Новинка

ВАЖНО

ИГРА 18+

pack

RePack

MK11
pack

Легкие деньги

RePack

jed

RePack

fifa19

RePack

RDR2

RePack

NEED FOR SPEED™ PAYBACK

4 сезон

9 сезон

Бесстыжие 9 сезон

Все сериалы

все сериалы на PB.wtf

RePack

FAR CRY 5

Anonymous, добрый вечер, мы не успеваем собрать деньги на оплату серверов за декабрь и январь, помогите нам пожалуйста в это трудное время. В качестве благодарности мы отключим Вам всю рекламу на сайте (укажите свой ник в строку Ваше имя)!

×
  
Magnet ссылка

Одарённая / Gifted (Марк Уэбб) [2017, Драма, BDRip-AVC] DUB [Лицензия] pb.wtf

Одарённая через торрент pb.wtf

Размер: 1.92 GB | Добавлен: 3 года 2 мес. назад | Торрент скачан:239 раз
Скачать  

26-10-2017 08:23 Одарённая Скачать торрент  

Одарённая / GiftedГод выпуска: 2017
Страна: США
Жанр: Драма
Продолжительность: 01:41:11
Перевод: Дубляж | Лицензия
Субтитры: Русские, английские
Реклама: Отсутствует

Режиссер: Марк Уэбб

rating

В ролях:

Крис Эванс, Маккенна Грэйс, Линдси Дункан, Дженни Слейт, Октавия Спенсер, Майкл Кендалл Каплан, Джон М. Джексон, Гленн Пламмер, Джон Финн, Элизабет Марвел

Описание:

Не у всех детей счастливое детство. К сожалению, иногда случаются непоправимые трагедии. В новом фильме «Одаренная», у совсем еще юной девочки Марии из жизни уходит родной и любимый человек – ее мама. Девочка осталась сиротой и почти никому нет дела относительно ее будущей судьбы. Однако, к счастью, у мамы был родной брат Фрэнк, который очень любил свою племянницу. Фрэнк, самый обычный парень, работает в своем городке грузчиком и почти никогда не мечтает о чем-то возвышенном. Иногда, правда, задумывается о своей жизни, глядя на морской прибой. Когда же произошла трагедия, молодой мужчина понял, что если он не примет нужного решения, его племянница окажется в детском доме, а он не может этого допустить. Френку приходиться доказывать о своей состоятельности воспитывать девочку. Когда же ему удается это и малышка начала жить с ним под одной крышей, они стали настоящими друзьями. Со временем у Марии обнаружились способности к математике, и дядя решает во что бы то ни стало развивать их. Но про гениальность девочки узнает и ее родная бабушка, властная и деспотичная женщина. Она решает забрать девочку и вырастить из нее гения. На этой почве начинается борьба бабушки и дяди. Кто же выиграет? Пострадает ли при этом девочка? Ответы сможем узнать только после просмотра фильма.?

Качество: BDRip-AVC
Формат: MKV
Видео кодек: H.264
Аудио кодек: AC3

Видео: 1024x426 (16:9), 23.976 fps, x264 ~1826 kbps avg, 0.175 bit/pixel
Аудио#1: 48 kHz, AC3 Dolby Digital, 3/2 (L,C,R,l,r) + LFE ch, ~448.00 kbps avg | RUS (Лицензия)
Аудио#2: 48 kHz, AC3 Dolby Digital, 3/2 (L,C,R,l,r) + LFE ch, ~448.00 kbps avg | ENG
скриншот   скриншот   скриншот   скриншот   скриншот   скриншот  

Общее
Уникальный идентификатор : 193889633385049195877501111426633885859 (0x91DDC8FB4816F568B023FF73FFDAE8A3)
Полное имя : E:OlLanDGroupGifted.2017.BDRip(AVC).OlLanDGroup.mkv
Формат : Matroska
Версия формата : Version 2
Размер файла : 1,92 Гбайт
Продолжительность : 1 ч. 41 м.
Общий поток : 2722 Кбит/сек
Название фильма : Gifted.2017 #TorpedoUK#
Дата кодирования : UTC 2017-10-26 07:22:07
Программа кодирования : mkvmerge v7.8.0 ('River Man') 32bit built on Apr 3 2015 12:11:22
Библиотека кодирования : libebml v1.3.1 + libmatroska v1.4.2

Видео
Идентификатор : 1
Формат : AVC
Формат/Информация : Advanced Video Codec
Профиль формата : High@L4.1
Параметр CABAC формата : Да
Параметр ReFrames формата : 10 кадров
Идентификатор кодека : V_MPEG4/ISO/AVC
Продолжительность : 1 ч. 41 м.
Битрейт : 1826 Кбит/сек
Ширина : 1024 пикселя
Высота : 426 пикселей
Соотношение сторон : 2,40:1
Режим частоты кадров : Постоянный
Частота кадров : 23,976 (24000/1001) кадра/сек
Цветовое пространство : YUV
Субдискретизация насыщенности : 4:2:0
Битовая глубина : 8 бит
Тип развёртки : Прогрессивная
Бит/(Пиксели*Кадры) : 0.175
Размер потока : 1,25 Гбайт (65%)
Библиотека кодирования : x264 core 146 r2538 121396c
Настройки программы : cabac=1 / ref=10 / deblock=1:-3:-3 / analyse=0x3:0x133 / me=umh / subme=11 / psy=1 / psy_rd=1.00:0.07 / mixed_ref=1 / me_range=48 / chroma_me=1 / trellis=2 / 8x8dct=1 / cqm=0 / deadzone=21,11 / fast_pskip=0 / chroma_qp_offset=-3 / threads=6 / lookahead_threads=1 / sliced_threads=0 / nr=0 / decimate=0 / interlaced=0 / bluray_compat=0 / constrained_intra=0 / bframes=10 / b_pyramid=2 / b_adapt=2 / b_bias=0 / direct=3 / weightb=1 / open_gop=0 / weightp=2 / keyint=240 / keyint_min=23 / scenecut=40 / intra_refresh=0 / rc_lookahead=40 / rc=2pass / mbtree=0 / bitrate=1826 / ratetol=1.0 / qcomp=0.60 / qpmin=0 / qpmax=69 / qpstep=4 / cplxblur=20.0 / qblur=0.5 / vbv_maxrate=50000 / vbv_bufsize=62500 / nal_hrd=none / filler=0 / ip_ratio=1.40 / pb_ratio=1.30 / aq=1:1.00
Язык : English
Default : Да
Forced : Нет

Аудио #1
Идентификатор : 2
Формат : AC-3
Формат/Информация : Audio Coding 3
Расширение режима : CM (complete main)
Параметр Endianness формата : Big
Идентификатор кодека : A_AC3
Продолжительность : 1 ч. 41 м.
Вид битрейта : Постоянный
Битрейт : 448 Кбит/сек
Каналы : 6 каналов
Расположение каналов : Front: L C R, Side: L R, LFE
Частота : 48,0 КГц
Частота кадров : 31,250 кадров/сек (1536 spf)
Битовая глубина : 16 бит
Метод сжатия : С потерями
Размер потока : 324 Мбайт (16%)
Заголовок : License
Язык : Russian
Default : Да
Forced : Нет

Аудио #2
Идентификатор : 3
Формат : AC-3
Формат/Информация : Audio Coding 3
Расширение режима : CM (complete main)
Параметр Endianness формата : Big
Идентификатор кодека : A_AC3
Продолжительность : 1 ч. 41 м.
Вид битрейта : Постоянный
Битрейт : 448 Кбит/сек
Каналы : 6 каналов
Расположение каналов : Front: L C R, Side: L R, LFE
Частота : 48,0 КГц
Частота кадров : 31,250 кадров/сек (1536 spf)
Битовая глубина : 16 бит
Метод сжатия : С потерями
Размер потока : 324 Мбайт (16%)
Заголовок : Original
Язык : English
Default : Нет
Forced : Нет

Текст #1
Идентификатор : 4
Формат : UTF-8
Идентификатор кодека : S_TEXT/UTF8
Идентификатор кодека/Информация : UTF-8 Plain Text
Заголовок : Forced
Язык : Russian
Default : Да
Forced : Нет

Текст #2
Идентификатор : 5
Формат : UTF-8
Идентификатор кодека : S_TEXT/UTF8
Идентификатор кодека/Информация : UTF-8 Plain Text
Заголовок : Full
Язык : Russian
Default : Нет
Forced : Нет

Текст #3
Идентификатор : 6
Формат : UTF-8
Идентификатор кодека : S_TEXT/UTF8
Идентификатор кодека/Информация : UTF-8 Plain Text
Язык : English
Default : Нет
Forced : Нет

Меню
00:00:00.000 : en:Chapter 1
00:04:36.317 : en:Chapter 2
00:07:49.302 : en:Chapter 3
00:12:55.524 : en:Chapter 4
00:18:50.002 : en:Chapter 5
00:22:23.008 : en:Chapter 6
00:29:13.084 : en:Chapter 7
00:33:18.829 : en:Chapter 8
00:37:56.398 : en:Chapter 9
00:42:57.824 : en:Chapter 10
00:45:34.356 : en:Chapter 11
00:48:06.675 : en:Chapter 12
00:50:58.804 : en:Chapter 13
00:54:31.684 : en:Chapter 14
00:59:05.958 : en:Chapter 15
01:03:52.786 : en:Chapter 16
01:08:44.787 : en:Chapter 17
01:14:52.279 : en:Chapter 18
01:19:29.345 : en:Chapter 19
01:23:44.769 : en:Chapter 20
01:26:54.751 : en:Chapter 21
01:29:38.831 : en:Chapter 22
01:32:49.271 : en:Chapter 23
01:35:36.646 : en:Chapter 24

pb.wtf



Скачать Одарённая через торрент http://lostpix.com/img/2017-07/26/5jalq1z6e0fghm9m5p2knfest.jpg Скачать фильм Одарённая через торрент бесплантно в хорошем качестве Описание: Не у всех детей счастливое детство. К сожалению, иногда случаются непоправимые трагедии. В новом фильме «Одаренная», у совсем еще ... 10 10 3
Info! Золотая раздача, скачанное не засчитывается.
Торрент: Зарегистрирован [2017-10-26 08:23] · скачан: 239 раз
Статус: √ проверено
Размер: 1.92 GB
Как cкачать? Как скачать Одарённая через торрент | UTorrent

% Раздел Тема Автор DL S | L
Зарубежные сериалы [ 8.6 GB ] Одарённые / The Gifted / Сезон: 2 / Серии: 1-16 из 16 [2018 фэнтэзи WEB-DLRip] MVO [NewStudio] bober100 Скачать
1 | 0
Зарубежные сериалы [ 46.15 GB ] Одаренные / The Gifted / Сезон: 2 / Серии: 1-16 из 16 [2018 WEB-DL 1080p] 2x[MVO] killermax2013 Скачать
1 | 0
Зарубежные сериалы [ 40.85 GB ] Одаренные / The Gifted / Сезон: 1 / Серии: 1-13 из 13 [2017 WEB-DL 1080p] MVO [LostFilm] bober100 Скачать
1 | 0
Зарубежные сериалы [ 19.94 GB ] Одаренные / The Gifted / Сезон: 2 / Серии: 1-16 из 16 [2018 WEB-DL 720p] [MVO] killermax2013 Скачать
1 | 0
Зарубежные сериалы [ 8.54 GB ] Одаренные / The Gifted / Сезон: 2 / Серии: 1-16 из 16 [2018 WEB-DLRip] [MVO] killermax2013 Скачать
1 | 0
Зарубежные сериалы [ 30.99 GB ] Одарённые / The Gifted / 2 сезон / Серии: 1-16 из 16 [2018 WEB-DL 1080p] [MVO] killermax2013 Скачать
1 | 0
Зарубежные сериалы [ 41.38 GB ] Одарённые / The Gifted / 2 сезон / 1-16 серия из 16 [2018 WEB-DL 1080p] [MVO] killermax2013 Скачать
1 | 0

28-11-2019 20:33  

Отключить всю рекламу на сайте

    Дорогой пользователь! Огромная просьба, поблагодарите релизера, оцените раздачу и оставьте свои комментарий, если Вы скачали Одарённая через торрент бесплатно! Внесите свою лепту в развитие PiratBit!
    Комментировать посты могут только пользователи прошедшие не сложную регистрацию
    Показать сообщения:    

    Одарённая через торрент
    Скачать бесплатно Одарённая
    Одарённая скачать торрент
    Одарённая смотреть онлайн
    Cкачать фильм Одарённая бесплатно
    Одарённая скачать торрент в хорошем качестве
    Одарённая смотреть онлайн бесплатно в хорошем качестве


    Вы не можете начинать темы
    Вы не можете отвечать на сообщения
    Вы не можете редактировать свои сообщения
    Вы не можете удалять свои сообщения
    Вы не можете голосовать в опросах
    Вы не можете прикреплять файлы к сообщениям
    Вы можете скачивать файлы