Ссылка на приватное зеркало всего за 1$. Внимание количество ограничено!!!

iTunes

iTunes

iTunes

1

iTunes

iTunes

iTunes

iTunes

iTunes

30
pack

$ от Little Big

ВАЖНО

!!Акция!!

Alien_RageХит недели

RePack

Resident Evil 21

ИГРА 18+

pack

RePack

jed

!!Акция!!

Alien_Rage

RePack

fifa19

RePack

Assassins Creed: Odyssey

RePack

NEED FOR SPEED™ PAYBACK

4 сезон

9 сезон

Бесстыжие 9 сезон

Все сериалы

все сериалы на PB.wtf

RePack

FAR CRY 5
  

1922 / 1922 (Зак Хилдитч) [2017, ужасы, триллер, драма, криминал, детектив, WEB-DL 1080p] MVO [AlexFilm] pb.wtf

1922 через торрент pb.wtf

Размер: 5.78 GB | Добавлен: 2 года 8 мес. назад | Торрент скачан:447 раз
Скачать  

26-10-2017 08:38 1922 Скачать торрент  

1922 / 1922Год выпуска: 2017
Страна: США
Жанр: ужасы, триллер, драма, криминал, детектив
Продолжительность: 01:42:46
Перевод: Профессиональный многоголосый - AlexFilm
Субтитры: английские

Режиссер: Зак Хилдитч

rating

В ролях:

Томас Джейн, Молли Паркер, Дилан Шмид, Брайан Д Арси Джеймс, Нил МакДонаф, Боб Фрейзер, Патрик Китинг, Грэм Даффи, Брюс Блэйн

Описание:

История о фермере Уилфреде Джеймсе, который с помощью сына-подростка убил свою жену и бросил её тело на растерзание крысам. С тех пор крысы-трупоеды следуют за Уилфредом по пятам, ломая ему жизнь и доводя до безумия.

Качество: WEB-DL 1080p
Формат: MKV
Видео кодек: H.264
Аудио кодек: AC3

Видео: AVC, 1920x804 (2.40:1), 24 fps ~ 7160 Kbps
Аудио#1: AC3, 48 KHz, 6 ch~ 384 Kb/s (русский)
Аудио#2: AC3, 48 KHz, 6 ch~ 384 Kb/s (английский)
скриншот   скриншот   скриншот   скриншот   скриншот  

Общее
Уникальный идентификатор : 252356477630295318290752378051721085976 (0xBDDA16F61BF01B709D220600EEAAC418)
Полное имя : Q:TorF1922.2017.1080p.mkv
Формат : Matroska
Версия формата : Version 2
Размер файла : 5,78 Гбайт
Продолжительность : 1 ч. 42 м.
Общий поток : 8091 Кбит/сек
Дата кодирования : UTC 2017-10-26 05:21:25
Программа кодирования : mkvmerge v5.4.0 ('Piper') built on Mar 10 2012 13:34:39
Библиотека кодирования : libebml v1.2.3 + libmatroska v1.3.0

Видео
Идентификатор : 1
Формат : AVC
Формат/Информация : Advanced Video Codec
Профиль формата : High@L4.1
Параметр CABAC формата : Да
Параметр ReFrames формата : 5 кадров
Идентификатор кодека : V_MPEG4/ISO/AVC
Продолжительность : 1 ч. 42 м.
Битрейт : 7162 Кбит/сек
Ширина : 1920 пикселей
Высота : 804 пикселя
Соотношение сторон : 2,40:1
Частота кадров : 24,000 кадра/сек
Цветовое пространство : YUV
Субдискретизация насыщенности : 4:2:0
Битовая глубина : 8 бит
Тип развёртки : Прогрессивная
Бит/(Пиксели*Кадры) : 0.193
Размер потока : 5,11 Гбайт (89%)
Библиотека кодирования : x264 core 152 r2851 ba24899
Настройки программы : cabac=1 / ref=5 / deblock=1:-3:-3 / analyse=0x3:0x133 / me=umh / subme=11 / psy=1 / psy_rd=1.05:0.15 / mixed_ref=1 / me_range=16 / chroma_me=1 / trellis=2 / 8x8dct=1 / cqm=0 / deadzone=21,11 / fast_pskip=0 / chroma_qp_offset=-3 / threads=12 / lookahead_threads=1 / sliced_threads=0 / nr=0 / decimate=1 / interlaced=0 / bluray_compat=0 / constrained_intra=0 / bframes=3 / b_pyramid=2 / b_adapt=2 / b_bias=0 / direct=3 / weightb=1 / open_gop=0 / weightp=2 / keyint=250 / keyint_min=24 / scenecut=40 / intra_refresh=0 / rc_lookahead=50 / rc=crf / mbtree=1 / crf=17.0 / qcomp=0.60 / qpmin=0 / qpmax=69 / qpstep=4 / ip_ratio=1.40 / aq=3:0.65
Язык : English
Default : Да
Forced : Нет

Аудио #1
Идентификатор : 2
Формат : AC-3
Формат/Информация : Audio Coding 3
Расширение режима : CM (complete main)
Идентификатор кодека : A_AC3
Продолжительность : 1 ч. 42 м.
Вид битрейта : Постоянный
Битрейт : 384 Кбит/сек
Каналы : 6 каналов
Расположение каналов : Front: L C R, Side: L R, LFE
Частота : 48,0 КГц
Битовая глубина : 16 бит
Метод сжатия : С потерями
Задержка видео : 150 мс.
Размер потока : 281 Мбайт (5%)
Заголовок : AlexFilm
Язык : Russian
Default : Да
Forced : Нет

Аудио #2
Идентификатор : 3
Формат : AC-3
Формат/Информация : Audio Coding 3
Расширение режима : CM (complete main)
Идентификатор кодека : A_AC3
Продолжительность : 1 ч. 42 м.
Вид битрейта : Постоянный
Битрейт : 384 Кбит/сек
Каналы : 2 канала
Расположение каналов : Front: L R
Частота : 48,0 КГц
Битовая глубина : 16 бит
Метод сжатия : С потерями
Размер потока : 281 Мбайт (5%)
Язык : English
Default : Нет
Forced : Нет

Текст
Идентификатор : 4
Формат : UTF-8
Идентификатор кодека : S_TEXT/UTF8
Идентификатор кодека/Информация : UTF-8 Plain Text
Заголовок : CC
Язык : English
Default : Нет
Forced : Нет

pb.wtf



Скачать 1922 через торрент http://i95.fastpic.ru/big/2017/1026/10/ee0a3f77561e35a90f89dacd8c4d4d10.jpg Скачать фильм 1922 через торрент бесплантно в хорошем качестве Описание: История о фермере Уилфреде Джеймсе, который с помощью сына-подростка убил свою жену и бросил её тело на растерзание крысам. С тех ... 10 10 14
Info! Золотая раздача, скачанное не засчитывается.
Торрент: Зарегистрирован [2017-10-26 08:38] · скачан: 447 раз
Статус: √ проверено
Размер: 5.78 GB
Как cкачать? Как скачать 1922 через торрент | qTorrent

% Раздел Тема Автор DL S | L
Аудио- и видео-, CD- проигрыватели и каталогизаторы [ 36 MB ] Daum PotPlayer 1.7.19220 [OpenCodec + WorldTV1000 + IPTV1000 + Radio4500] Portable by PortableAppZ [Multi/Ru/2019] DToretto777 Скачать
1 | 0
Ultra HD (UHD: 2K, 4K, 8K) — видео сверхвысокой чёткости [ 26.94 GB ] 1922 / 1922 [2017 UHD WEBRip 2160p] MVO [AlexFilm] bober100 Скачать
1 | 0
Фильмы (WEB-DL 720p, 1080p) [ 1.95 GB ] 1922 / 1922 [2017 WEB-DL 720p] [MVO] killermax2013 Скачать
1 | 0
Фильмы 2017 [DVDrip, WEB-DLRip, HDrip] (DUB, MVO) [ 1.2 GB ] 1922 / 1922 [2017 WEB-DLRip] [MVO] killermax2013 Скачать
1 | 0
Фильмы без перевода [ 27.55 GB ] Носферату симфония ужаса / Nosferatu eine Symphonie des Grauens [1922 BDRemux / Sub] shuller Скачать
1 | 0
Классика зарубежного кино [ 1.46 GB ] Носферату симфония ужаса / Nosferatu eine Symphonie des Grauens [1922 BDRip] Sub Ворон Скачать
1 | 0
Арт-хаус и авторское кино [ 1.44 GB ] Ведьмы / Haxan [1922 История Документальный DVDRip] VO КинозалТВ MicroCharmelle Скачать
1 | 0

28-11-2019 20:33  

Отключить всю рекламу на сайте

26-10-2017 09:13 1922 Скачать торрент  

Интересный способ..много думаю pb.wtf



26-10-2017 13:44 1922 Скачать торрент  

дайте скорости народ, спасибо реактивноpb.wtf



27-10-2017 19:30 1922 Скачать торрент  

хоть по книге?pb.wtf



    Дорогой пользователь! Огромная просьба, поблагодарите релизера, оцените раздачу и оставьте свои комментарий, если Вы скачали 1922 через торрент бесплатно! Внесите свою лепту в развитие PiratBit!
    Комментировать посты могут только пользователи прошедшие не сложную регистрацию
    Показать сообщения:    

    1922 через торрент
    Скачать бесплатно 1922
    1922 скачать торрент
    1922 смотреть онлайн
    Cкачать фильм 1922 бесплатно
    1922 скачать торрент в хорошем качестве
    1922 смотреть онлайн бесплатно в хорошем качестве


    Вы не можете начинать темы
    Вы не можете отвечать на сообщения
    Вы не можете редактировать свои сообщения
    Вы не можете удалять свои сообщения
    Вы не можете голосовать в опросах
    Вы не можете прикреплять файлы к сообщениям
    Вы можете скачивать файлы