Ссылка на приватное зеркало нашего сайта всего за 1$. Внимание количество ограничено!!!

2 сезон

iTunes

1 сезон

1

2 сезон

2 сезон

iTunes

1 сезон

RePack

30

Ultimate

ВАЖНО

ИГРА 18+

pack

RePack

MK11
pack

Забери бонус

RePack

jed

!!Акция!!

Alien_Rage

RePack

fifa19

RePack

Assassins Creed: Odyssey

RePack

NEED FOR SPEED™ PAYBACK

4 сезон

9 сезон

Бесстыжие 9 сезон

Все сериалы

все сериалы на PB.wtf

RePack

FAR CRY 5
  

Планета страха / Planet Terro (Роберт Родригес) [2007, Ужасы, фантастика, боевик, триллер, комедия, приключения, BD Remux 1080p] DUB+MVO+2xAVO pb.wtf

Планета страха через торрент pb.wtf

Размер: 23.35 GB | Добавлен: 3 года 1 мес. назад | Торрент скачан:10 раз
Скачать  

26-10-2017 13:25 Планета страха Скачать торрент  

Планета страха / Planet TerroГод выпуска: 2007
Страна: США
Жанр: Ужасы, фантастика, боевик, триллер, комедия, приключения
Продолжительность: 01:45:33
Перевод: Дубляж, профессиональный многоголосый, авторский
Субтитры: Русские, английские

Режиссер: Роберт Родригес

rating

В ролях:

Роуз МакГоун, Фредди Родригес, Марли Шелтон, Джош Бролин, Майкл Бин, Джефф Фэйи, Брюс Уиллис, Нэвин Эндрюс, Майкл Паркс, Том Савини

Описание:

Вечер в безымянном городке как-то сразу не задался. Причем для всех его жителей. На секретной военной базе подорвали канистры с опасным газом DC-2, в результате чего почти все жители превратились в адски прожорливых ходячих дохляков. Особенно не повезло только-только уволившейся стриптизерше Вишенке... Что было дальше - смотрите в зверски крутом и безбашенном чернокомедийном боевике Роберта Родригеса "Планета Террор".

Качество: BD Remux 1080p
Формат: MKV
Видео кодек: H.264
Аудио кодек: AC3/DTS

Видео: 23391 Кбит/с, 1920x1080, 23.976 кадр/с
Аудио#1: Русский (DTS, 6 ch, 1510 Кбит/с) - Дубляж
Аудио#2: Русский (AC3, 6 ch, 448 Кбит/с) - Профессиональный многоголосый (Киномания)
Аудио#3: Русский (DTS, 6 ch, 1509 Кбит/с) - Авторский (Матвеев)
Аудио#4: Русский (AC3, 6 ch, 448 Кбит/с) - Авторский (Немахов)
Аудио#5: Английский (TrueHD, 6 ch, 3658 Кбит/с) - Оригинал
Аудио#6: Английский (AC3, 6 ch, 640 Кбит/с) - Оригинал
скриншот   скриншот   скриншот   скриншот   скриншот   скриншот  

Общее
Уникальный идентификатор : 201559323482975005722854976988664230570 (0x97A2E9E60E651EEEA5DEF53FC49EF2AA)
Полное имя : D:\РЕМУКС!!!!!\Планета страха BDRemux.mkv
Формат : Matroska
Версия формата : Version 4 / Version 2
Размер файла : 23,4 Гбайт
Продолжительность : 1 ч. 45 м.
Режим общего битрейта : Переменный
Общий поток : 31,7 Мбит/сек
Название фильма : Планета страха BDRemux. thx:SPOMOPS.
Дата кодирования : UTC 2017-10-22 10:35:38
Программа кодирования : mkvmerge v6.1.0 ('Old Devil') built on Mar 4 2013 09:10:42
Библиотека кодирования : libebml v1.3.0 + libmatroska v1.4.0

Видео
Идентификатор : 1
Формат : AVC
Формат/Информация : Advanced Video Codec
Профиль формата : High@L4.1
Параметр CABAC формата : Да
Параметр RefFrames формата : 3 кадра
Идентификатор кодека : V_MPEG4/ISO/AVC
Продолжительность : 1 ч. 45 м.
Вид битрейта : Переменный
Максимальный битрейт : 36,0 Мбит/сек
Ширина : 1920 пикселей
Высота : 1080 пикселей
Соотношение сторон : 16:9
Режим частоты кадров : Постоянный
Частота кадров : 23,976 (24000/1001) кадра/сек
Стандарт вещания : NTSC
Цветовое пространство : YUV
Субдискретизация насыщенности : 4:2:0
Битовая глубина : 8 бит
Тип развёртки : Прогрессивная
Заголовок : 1920x1080, 23.976 fps, H.264, ~23391 kbps
Default : Да
Forced : Нет
Цветовой диапазон : Limited

Аудио #1
Идентификатор : 2
Формат : DTS
Формат/Информация : Digital Theater Systems
Режим : 16
Параметр Endianness формата : Big
Идентификатор кодека : A_DTS
Продолжительность : 1 ч. 45 м.
Вид битрейта : Постоянный
Битрейт : 1510 Кбит/сек
Каналы : 6 каналов
Расположение каналов : Front: L C R, Side: L R, LFE
Частота : 48,0 КГц
Частота кадров : 93,750 кадра/сек (512 SPF)
Битовая глубина : 24 бит
Метод сжатия : С потерями
Размер потока : 1,11 Гбайт (5%)
Заголовок : Русский DTS 1510 - Дубляж
Язык : Russian
Default : Да
Forced : Нет

Аудио #2
Идентификатор : 3
Формат : AC-3
Формат/Информация : Audio Coding 3
Параметр Endianness формата : Big
Идентификатор кодека : A_AC3
Продолжительность : 1 ч. 45 м.
Вид битрейта : Постоянный
Битрейт : 448 Кбит/сек
Каналы : 6 каналов
Расположение каналов : Front: L C R, Side: L R, LFE
Частота : 48,0 КГц
Частота кадров : 31,250 кадров/сек (1536 SPF)
Битовая глубина : 16 бит
Метод сжатия : С потерями
Размер потока : 338 Мбайт (1%)
Заголовок : Руский AC3, 448 - ПМ (Киномания)
Язык : Russian
ServiceKind/String : Complete Main
Default : Нет
Forced : Нет

Аудио #3
Идентификатор : 4
Формат : DTS
Формат/Информация : Digital Theater Systems
Режим : 16
Параметр Endianness формата : Big
Идентификатор кодека : A_DTS
Продолжительность : 1 ч. 45 м.
Вид битрейта : Постоянный
Битрейт : 1509 Кбит/сек
Каналы : 6 каналов
Расположение каналов : Front: L C R, Side: L R, LFE
Частота : 48,0 КГц
Частота кадров : 93,750 кадра/сек (512 SPF)
Битовая глубина : 24 бит
Метод сжатия : С потерями
Размер потока : 1,11 Гбайт (5%)
Заголовок : Русский DTS 1509 - АП (Матвеев)
Язык : Russian
Default : Нет
Forced : Нет

Аудио #4
Идентификатор : 5
Формат : AC-3
Формат/Информация : Audio Coding 3
Параметр Endianness формата : Big
Идентификатор кодека : A_AC3
Продолжительность : 1 ч. 45 м.
Вид битрейта : Постоянный
Битрейт : 448 Кбит/сек
Каналы : 6 каналов
Расположение каналов : Front: L C R, Side: L R, LFE
Частота : 48,0 КГц
Частота кадров : 31,250 кадров/сек (1536 SPF)
Битовая глубина : 16 бит
Метод сжатия : С потерями
Размер потока : 338 Мбайт (1%)
Заголовок : Руский AC3, 448 - АП (Немахов)
Язык : Russian
ServiceKind/String : Complete Main
Default : Нет
Forced : Нет

Аудио #5
Идентификатор : 6
Формат : TrueHD
Идентификатор кодека : A_TRUEHD
Продолжительность : 1 ч. 45 м.
Вид битрейта : Переменный
Максимальный битрейт : 5445 Кбит/сек
Каналы : 6 каналов
Расположение каналов : Front: L C R, Side: L R, LFE
Частота : 48,0 КГц
Частота кадров : 1200,000 кадров/сек (40 SPF)
Метод сжатия : Без потерь
Заголовок : Английский TrueHD ~3658
Язык : English
Default : Нет
Forced : Нет

Аудио #6
Идентификатор : 7
Формат : AC-3
Формат/Информация : Audio Coding 3
Параметр Endianness формата : Big
Идентификатор кодека : A_AC3
Продолжительность : 1 ч. 45 м.
Вид битрейта : Постоянный
Битрейт : 640 Кбит/сек
Каналы : 6 каналов
Расположение каналов : Front: L C R, Side: L R, LFE
Частота : 48,0 КГц
Частота кадров : 31,250 кадров/сек (1536 SPF)
Битовая глубина : 16 бит
Метод сжатия : С потерями
Размер потока : 483 Мбайт (2%)
Заголовок : Aнглийский AC3, 640 kbps
Язык : English
ServiceKind/String : Complete Main
Default : Нет
Forced : Нет

Текст #1
Идентификатор : 8
Формат : UTF-8
Идентификатор кодека : S_TEXT/UTF8
Идентификатор кодека/Информация : UTF-8 Plain Text
Заголовок : Русские
Язык : Russian
Default : Нет
Forced : Нет

Текст #2
Идентификатор : 9
Формат : UTF-8
Идентификатор кодека : S_TEXT/UTF8
Идентификатор кодека/Информация : UTF-8 Plain Text
Заголовок : Английские
Язык : English
Default : Нет
Forced : Нет

Меню
00:00:00.000 : :Chapter 01
00:05:00.000 : :Chapter 02
00:10:00.000 : :Chapter 03
00:15:00.000 : :Chapter 04
00:20:00.000 : :Chapter 05
00:25:00.000 : :Chapter 06
00:30:00.000 : :Chapter 07
00:35:00.000 : :Chapter 08
00:40:00.000 : :Chapter 09
00:45:00.000 : :Chapter 10
00:50:00.000 : :Chapter 11
00:55:00.000 : :Chapter 12
01:00:00.000 : :Chapter 13
01:05:00.000 : :Chapter 14
01:10:00.000 : :Chapter 15
01:15:00.000 : :Chapter 16
01:20:00.000 : :Chapter 17
01:25:00.000 : :Chapter 18
01:30:00.000 : :Chapter 19
01:35:00.000 : :Chapter 20
01:40:00.000 : :Chapter 21
01:45:00.000 : :Chapter 22

pb.wtf



Скачать Планета страха через торрент http://s019.radikal.ru/i632/1710/36/0417ee3ec544.jpg Скачать фильм Планета страха через торрент бесплантно в хорошем качестве Описание: Вечер в безымянном городке как-то сразу не задался. Причем для всех его жителей. На секретной военной базе подорвали канистры с ... 10 10 4
Торрент: Зарегистрирован [2017-10-26 13:25] · скачан: 10 раз
Статус: √ проверено
Размер: 23.35 GB
Как cкачать? Как скачать Планета страха через торрент | qTorrent

28-11-2019 20:33  

Отключить всю рекламу на сайте

    Дорогой пользователь! Огромная просьба, поблагодарите релизера, оцените раздачу и оставьте свои комментарий, если Вы скачали Планета страха через торрент бесплатно! Внесите свою лепту в развитие PiratBit!
    Комментировать посты могут только пользователи прошедшие не сложную регистрацию
    Показать сообщения:    

    Планета страха через торрент
    Скачать бесплатно Планета страха
    Планета страха скачать торрент
    Планета страха смотреть онлайн
    Cкачать фильм Планета страха бесплатно
    Планета страха скачать торрент в хорошем качестве
    Планета страха смотреть онлайн бесплатно в хорошем качестве


    Вы не можете начинать темы
    Вы не можете отвечать на сообщения
    Вы не можете редактировать свои сообщения
    Вы не можете удалять свои сообщения
    Вы не можете голосовать в опросах
    Вы не можете прикреплять файлы к сообщениям
    Вы можете скачивать файлы