2 сезон

iTunes

1 сезон

1

iTunes

iTunes

iTunes

1 сезон

RePack

30

ИГРА 18+

pack

ВАЖНО

!!Акция!!

Alien_RageХит недели

RePack

MK11
pack

Забери бонус

RePack

jed

!!Акция!!

Alien_Rage

RePack

fifa19

RePack

Assassins Creed: Odyssey

RePack

NEED FOR SPEED™ PAYBACK

4 сезон

9 сезон

Бесстыжие 9 сезон

Все сериалы

все сериалы на PB.wtf

RePack

FAR CRY 5
  

Джон Уик 2 / John Wick: Chapter Two (Чад Стахелски) [2017, Боевик, триллер, криминал, BDRip 1080p] DUB+2xAVO [Лицензия] pb.wtf

Джон Уик 2 через торрент pb.wtf

Размер: 15.93 GB | Добавлен: 3 года назад | Торрент скачан:518 раз
Скачать  

27-10-2017 08:37 Джон Уик 2 Скачать торрент  

Джон Уик 2 / John Wick: Chapter TwoГод выпуска: 2017
Страна: США
Жанр: Боевик, триллер, криминал
Продолжительность: 02:02:22

Перевод:

#1: Дублированный | Лицензия
#2: Авторский | Дмитрий Есарев
#3: Авторский | Алексей Матвеев

Субтитры: Русские, английские

Режиссер: Чад Стахелски

rating

В ролях:

Киану Ривз, Риккардо Скамарчио, Иэн МакШейн, Руби Роуз, Коммон, Клаудия Джерини, Лэнс Реддик, Лоуренс Фишборн, Тобиаш Сигал, Джон Легуизамо

Описание:

Когда-то Джон Уик был лучшим киллером в мире, но он устал от бесконечных убийств и теперь его душа требует покоя. Джон отходит от дел, но, не успев насладиться жизнью нормального человека, ему вновь приходится взять в руки оружие. Дело в том, что его бывший напарник собирается возглавить тайную гильдию наемных убийц и, данная Джоном кровная клятва, вынуждает героя прийти на помощь коллеге. Уик отправляется в Рим, где ему предстоит вступить в противостояние с одним из самых смертоносных убийц в мире

Качество: BDRip 1080p
Формат: MKV
Видео кодек: H.264
Аудио кодек: DTS/AC3

Видео: MPEG-4 AVC, 1920x800, 15.7 Mbit/s, 23.976 fps
Аудио#1: 48 kHz, DTS, 5.1, 1536 Kbps | Дублированный | RUS |
Аудио#2: 48 kHz, AC3, 5.1, 384 Kbps | Авторский | RUS |
Аудио#3: 48 kHz, AC3, 5.1, 384 Kbps | Авторский | RUS |
Аудио#4: 48 kHz, AC3, 5.1, 640 Kbps | Оригинал | ENG |

Релиз от:
В авторской озвучке, а так же в русских субтитрах, присутствует ненормативная лексика

скриншот   скриншот   скриншот   скриншот   скриншот  

General
Unique ID : 174564415961501190390676890832824336390 (0x8353E2331DC4138091C2EA81444E8006)
Complete name : G:VideoSSDJohn.Wick.Chapter.2.2017.Lic.BDRip.1080p.ExKinoRay.mkv
Format : Matroska
Format version : Version 4 / Version 2
File size : 15.9 GiB
Duration : 2 h 2 min
Overall bit rate : 18.6 Mb/s
Encoded date : UTC 2017-10-27 03:33:36
Writing application : mkvmerge v17.0.0 ('Be Ur Friend') 64-bit
Writing library : libebml v1.3.5 + libmatroska v1.4.8

Video
ID : 1
Format : AVC
Format/Info : Advanced Video Codec
Format profile : High@L4.1
Format settings : CABAC / 5 Ref Frames
Format settings, CABAC : Yes
Format settings, RefFrames : 5 frames
Codec ID : V_MPEG4/ISO/AVC
Duration : 2 h 2 min
Bit rate : 15.7 Mb/s
Width : 1 920 pixels
Height : 800 pixels
Display aspect ratio : 2.40:1
Frame rate mode : Constant
Frame rate : 23.976 (24000/1001) FPS
Color space : YUV
Chroma subsampling : 4:2:0
Bit depth : 8 bits
Scan type : Progressive
Bits/(Pixel*Frame) : 0.426
Stream size : 13.4 GiB (84%)
Writing library : x264 core 146 r2538 121396c
Encoding settings : cabac=1 / ref=5 / deblock=1:-3:-3 / analyse=0x3:0x133 / me=umh / subme=11 / psy=1 / psy_rd=1.05:0.05 / mixed_ref=1 / me_range=64 / chroma_me=1 / trellis=2 / 8x8dct=1 / cqm=0 / deadzone=21,11 / fast_pskip=0 / chroma_qp_offset=-3 / threads=6 / lookahead_threads=1 / sliced_threads=0 / nr=0 / decimate=0 / interlaced=0 / bluray_compat=0 / constrained_intra=0 / bframes=8 / b_pyramid=2 / b_adapt=2 / b_bias=0 / direct=3 / weightb=1 / open_gop=0 / weightp=2 / keyint=240 / keyint_min=23 / scenecut=40 / intra_refresh=0 / rc_lookahead=50 / rc=2pass / mbtree=0 / bitrate=15700 / ratetol=1.0 / qcomp=0.60 / qpmin=0 / qpmax=69 / qpstep=4 / cplxblur=20.0 / qblur=0.5 / vbv_maxrate=50000 / vbv_bufsize=62500 / nal_hrd=none / filler=0 / ip_ratio=1.40 / pb_ratio=1.30 / aq=1:0.80
Language : English
Default : Yes
Forced : No

Audio #1
ID : 2
Format : DTS
Format/Info : Digital Theater Systems
Mode : 16
Format settings, Endianness : Big
Codec ID : A_DTS
Duration : 2 h 2 min
Bit rate mode : Constant
Bit rate : 1 536 kb/s
Channel(s) : 6 channels
Channel positions : Front: L C R, Side: L R, LFE
Sampling rate : 48.0 kHz
Frame rate : 93.750 FPS (512 SPF)
Bit depth : 24 bits
Compression mode : Lossy
Stream size : 1.31 GiB (8%)
Title : Dub [License]
Language : Russian
Default : Yes
Forced : No

Audio #2
ID : 3
Format : AC-3
Format/Info : Audio Coding 3
Format settings, Endianness : Big
Codec ID : A_AC3
Duration : 2 h 2 min
Bit rate mode : Constant
Bit rate : 384 kb/s
Channel(s) : 6 channels
Channel positions : Front: L C R, Side: L R, LFE
Sampling rate : 48.0 kHz
Frame rate : 31.250 FPS (1536 SPF)
Bit depth : 16 bits
Compression mode : Lossy
Stream size : 336 MiB (2%)
Title : AVO
Language : Russian
Service kind : Complete Main
Default : No
Forced : No

Audio #3
ID : 4
Format : AC-3
Format/Info : Audio Coding 3
Format settings, Endianness : Big
Codec ID : A_AC3
Duration : 2 h 2 min
Bit rate mode : Constant
Bit rate : 384 kb/s
Channel(s) : 6 channels
Channel positions : Front: L C R, Side: L R, LFE
Sampling rate : 48.0 kHz
Frame rate : 31.250 FPS (1536 SPF)
Bit depth : 16 bits
Compression mode : Lossy
Stream size : 336 MiB (2%)
Title : AVO
Language : Russian
Service kind : Complete Main
Default : No
Forced : No

Audio #4
ID : 5
Format : AC-3
Format/Info : Audio Coding 3
Format settings, Endianness : Big
Codec ID : A_AC3
Duration : 2 h 2 min
Bit rate mode : Constant
Bit rate : 640 kb/s
Channel(s) : 6 channels
Channel positions : Front: L C R, Side: L R, LFE
Sampling rate : 48.0 kHz
Frame rate : 31.250 FPS (1536 SPF)
Bit depth : 16 bits
Compression mode : Lossy
Stream size : 560 MiB (3%)
Title : Original
Language : English
Service kind : Complete Main
Default : No
Forced : No

Text #1
ID : 6
Format : UTF-8
Codec ID : S_TEXT/UTF8
Codec ID/Info : UTF-8 Plain Text
Duration : 1 h 53 min
Bit rate : 37 b/s
Count of elements : 501
Stream size : 31.0 KiB (0%)
Title : Full
Language : Russian
Default : No
Forced : No

Text #2
ID : 7
Format : UTF-8
Codec ID : S_TEXT/UTF8
Codec ID/Info : UTF-8 Plain Text
Duration : 1 h 49 min
Bit rate : 21 b/s
Count of elements : 658
Stream size : 17.2 KiB (0%)
Title : Full
Language : English
Default : No
Forced : No

Menu
00:00:00.000 : en:00:00:00.000
00:06:31.683 : en:00:06:31.683
00:16:57.934 : en:00:16:57.934
00:26:35.594 : en:00:26:35.594
00:34:38.034 : en:00:34:38.034
00:42:07.817 : en:00:42:07.817
00:48:07.051 : en:00:48:07.051
00:56:41.648 : en:00:56:41.648
01:01:42.782 : en:01:01:42.782
01:10:27.682 : en:01:10:27.682
01:17:15.923 : en:01:17:15.923
01:24:22.641 : en:01:24:22.641
01:32:11.234 : en:01:32:11.234
01:40:01.329 : en:01:40:01.329
01:46:34.763 : en:01:46:34.763
01:54:01.042 : en:01:54:01.042

pb.wtf



Скачать Джон Уик 2 через торрент http://s010.radikal.ru/i312/1705/d5/9fb8b32395a2.jpg Скачать фильм Джон Уик 2 через торрент бесплантно в хорошем качестве Описание: Когда-то Джон Уик был лучшим киллером в мире, но он устал от бесконечных убийств и теперь его душа требует покоя. Джон отходит от ... 10 10 9
Info! Золотая раздача, скачанное не засчитывается.
Торрент: Зарегистрирован [2017-10-27 08:37] · скачан: 518 раз
Статус: √ проверено
Размер: 15.93 GB
Как cкачать? Как скачать Джон Уик 2 через торрент | qTorrent

% Раздел Тема Автор DL S | L
Фильмы (HD 720p, 1080p) (48-60 fps) [ 5.29 GB ] Джон Уик 2 / John Wick: Chapter Two [2017 BDRip - HEVC 1080p 10 bit 60 FPS] DUB dd2d3 Скачать
1 | 1
Ultra HD (UHD: 2K, 4K, 8K) — видео сверхвысокой чёткости [ 97.3 GB ] Джон Уик 2 / John Wick: Chapter Two [2017 UHD Blu-ray 2160p] DUB + 2xAVO sheker187 Скачать
1 | 1
Ultra HD (UHD: 2K, 4K, 8K) — видео сверхвысокой чёткости [ 17.79 GB ] Джон Уик 2 / John Wick: Chapter Two [2017 UHD BDRip 2160p] DUB + 5xAVO sheker187 Скачать
1 | 0
Ultra HD (UHD: 2K, 4K, 8K) — видео сверхвысокой чёткости [ 31.64 GB ] Джон Уик 2 / John Wick: Chapter Two [2017 UHD BDRip 2160p] [SDR] DUB + 2xAVO sheker187 Скачать
1 | 0
Ultra HD (UHD: 2K, 4K, 8K) — видео сверхвысокой чёткости [ 85.89 GB ] Джон Уик 2 / John Wick: Chapter Two [2017 UHD BDRemux 2160p] DUB + 4xAVO sheker187 Скачать
1 | 0
Фильмы [HD 720p, 1080p] (Хороший звук DUB, MVO) [ 4.77 GB ] Джон Уик 2 / John Wick: Chapter Two [2017 BDRip 1080p HEVC ] Мичман37 Скачать
1 | 0
Фильмы 2017 [DVDrip, WEB-DLRip, HDrip] (DUB, MVO) [ 2.18 GB ] Джон Уик 2 / John Wick: Chapter Two [2017 BDRip] - [] Twi7ter Скачать
1 | 0

28-11-2019 20:33  

Отключить всю рекламу на сайте

    Дорогой пользователь! Огромная просьба, поблагодарите релизера, оцените раздачу и оставьте свои комментарий, если Вы скачали Джон Уик 2 через торрент бесплатно! Внесите свою лепту в развитие PiratBit!
    Комментировать посты могут только пользователи прошедшие не сложную регистрацию
    Показать сообщения:    

    Джон Уик 2 через торрент
    Скачать бесплатно Джон Уик 2
    Джон Уик 2 скачать торрент
    Джон Уик 2 смотреть онлайн
    Cкачать фильм Джон Уик 2 бесплатно
    Джон Уик 2 скачать торрент в хорошем качестве
    Джон Уик 2 смотреть онлайн бесплатно в хорошем качестве


    Вы не можете начинать темы
    Вы не можете отвечать на сообщения
    Вы не можете редактировать свои сообщения
    Вы не можете удалять свои сообщения
    Вы не можете голосовать в опросах
    Вы не можете прикреплять файлы к сообщениям
    Вы можете скачивать файлы