Ссылка на приватное зеркало нашего сайта всего за 1$. Внимание количество ограничено!!!

2 сезон

iTunes

1 сезон

1

2 сезон

2 сезон

iTunes

1 сезон

RePack

30

Новинка

ВАЖНО

ИГРА 18+

pack

RePack

MK11
pack

Забери бонус

RePack

jed

!!Акция!!

Alien_Rage

RePack

fifa19

RePack

Assassins Creed: Odyssey

RePack

NEED FOR SPEED™ PAYBACK

4 сезон

9 сезон

Бесстыжие 9 сезон

Все сериалы

все сериалы на PB.wtf

RePack

FAR CRY 5
  

Субура / Suburra / Сезон: 1 / Серии 1-10 из 10 (Джузеппе Капотонди, Андреа Молайоли, Микеле Плач) [2017, Драма, криминал, WEBRip] [MVO] (Good People) pb.wtf

Субура через торрент pb.wtf

Размер: 6.25 GB | Добавлен: 3 года назад | Торрент скачан:100 раз
Скачать  

27-10-2017 08:43 Субура Скачать торрент  

Субурра / Suburra
Год выпуска: 2017
Страна: Италия
Жанр: Драма, криминал
Продолжительность: ~01:00:00
Перевод: Профессиональный (многоголосый закадровый) *Студия Good People*
Субтитры: нет

Режиссёр: Джузеппе Капотонди, Андреа Молайоли, Микеле Плачидо

В ролях: Филиппо Нигро, Франческо Аквароли, Джакомо Феррара, Клаудия Джерини, Алессандро Борги, Адамо Дионизи и другие

Описание: Сериал расскажет о событиях, происходящих в Субуре — одном из старейших районов Рима, который на протяжении многих лет считался одним из самых опасных на территории города. Здесь процветала торговля наркотиками, проституция, а на тёмных улицах нередко происходили кровавые разборки различных криминальных группировок. В центре сюжета оказываются трое молодых амбициозных парней, чья жажда славы, денег и власти втягивает их в жестокую борьбу за землю в небольшом приморском городке, расположенном недалеко от Рима.




Качество: WEBRip
Формат: AVI
Видео кодек: XvID
Аудио кодек: MP3
Видео: 720x384 (1.88:1), 25 fps, XviD build 73 ~1401 kbps avg, 0.20 bit/pixel
Аудио 1: 48 kHz, MPEG Layer 3, 2 ch, ~128.00 kbps avg - Русский
Аудио 2: 48 kHz, MPEG Layer 3, 2 ch, ~128.00 kbps avg - Оригинал
General
Complete name : E:\Suburra. Season 1 (WEBRip l 400p l Good People)\Suburra.S01E01.WEBRip.Rus.Ita.GoodPeople.avi
Format : AVI
Format/Info : Audio Video Interleave
File size : 751 MiB
Duration : 1 h 2 min
Overall bit rate : 1 676 kb/s
Writing application : VirtualDubMod 1.5.10.3 | www.virtualdub-fr.org || (build 2550/release)
Writing library : VirtualDubMod build 2550/release

Video
ID : 0
Format : MPEG-4 Visual
Format profile : Advanced Simple@L5
Format settings : BVOP1 / Custom Matrix
Format settings, BVOP : 1
Format settings, QPel : No
Format settings, GMC : No warppoints
Format settings, Matrix : Custom
Codec ID : XVID
Codec ID/Hint : XviD
Duration : 1 h 2 min
Bit rate : 1 343 kb/s
Width : 720 pixels
Height : 384 pixels
Display aspect ratio : 1.85:1
Frame rate : 25.000 FPS
Color space : YUV
Chroma subsampling : 4:2:0
Bit depth : 8 bits
Scan type : Progressive
Compression mode : Lossy
Bits/(Pixel*Frame) : 0.194
Stream size : 602 MiB (80%)
Writing library : XviD 73

Audio #1
ID : 1
Format : MPEG Audio
Format version : Version 1
Format profile : Layer 3
Format settings : Joint stereo / MS Stereo
Mode : Joint stereo
Mode extension : MS Stereo
Codec ID : 55
Codec ID/Hint : MP3
Duration : 1 h 2 min
Bit rate mode : Constant
Bit rate : 128 kb/s
Channel(s) : 2 channels
Sampling rate : 48.0 kHz
Compression mode : Lossy
Stream size : 57.4 MiB (8%)
Alignment : Aligned on interleaves

Audio #2
ID : 2
Format : MPEG Audio
Format version : Version 1
Format profile : Layer 3
Format settings : Joint stereo / MS Stereo
Mode : Joint stereo
Mode extension : MS Stereo
Codec ID : 55
Codec ID/Hint : MP3
Duration : 1 h 2 min
Bit rate mode : Constant
Bit rate : 128 kb/s
Channel(s) : 2 channels
Sampling rate : 48.0 kHz
Compression mode : Lossy
Stream size : 57.4 MiB (8%)
Alignment : Aligned on interleaves
скриншот  скриншот  скриншот  
pb.wtf



Скачать Субура через торрент http://i91.fastpic.ru/big/2017/1021/dd/b7cbe3059d72a56f30ce28ee575295dd.jpg Скачать фильм Субура через торрент бесплантно в хорошем качестве Описание: Сериал расскажет о событиях, происходящих в Субуре — одном из старейших районов Рима, который на протяжении многих лет считался ... 10 10 2
Торрент: Зарегистрирован [2017-10-27 08:43] · скачан: 100 раз
Статус: √ проверено
Размер: 6.25 GB
Как cкачать? Как скачать Субура через торрент | qTorrent

% Раздел Тема Автор DL S | L
Зарубежные сериалы [ 9.04 GB ] Субура / Suburra: Blood on Rome / Сезон: 3 / Серии: 1-6 из 6 [2020 WEB-DL 1080p] MVO [Jaskier] bober100 Скачать
2 | 0
Зарубежные сериалы [ 10.62 GB ] Субура / Suburra / Сезон: 1 / Серии: 1-10 из 10 [2017 WEBRip 720p] MVO [Jaskier] bober100 Скачать
1 | 0
Зарубежные сериалы [ 6.25 GB ] Субура / Suburra / Сезон: 1 / Серии: 1-10 из 10 [2017 WEBRip] MVO [Jaskier] bober100 Скачать
2 | 0
Зарубежные сериалы [ 12.61 GB ] Субура / Suburra / Сезон: 2 / Серии: 1-8 из 8 [2019 WEBRip 1080p] [MVO] killermax2013 Скачать
1 | 0
Зарубежные сериалы [ 133.98 GB ] Субура / Suburra / Сезон: 1 / Серии 1-10 из 10 [2017 Италия UHD WEBRip 2160p] 2xMVO sheker187 Скачать
1 | 0
Зарубежные сериалы [ 17.57 GB ] Субура / Suburra / Сезон: 1 / Серии 1-10 из 10 [2017 WEB-DLRip 1080p] [MVO] killermax2013 Скачать
1 | 0
Зарубежные сериалы [ 10.03 GB ] Субура / Suburra / Сезон: 1 / Серии 1-10 из 10 [2017 Италия WEBRip 720p] MVO [BaibaKo] GEKADOL Скачать
1 | 0

28-11-2019 20:33  

Отключить всю рекламу на сайте

    Дорогой пользователь! Огромная просьба, поблагодарите релизера, оцените раздачу и оставьте свои комментарий, если Вы скачали Субура через торрент бесплатно! Внесите свою лепту в развитие PiratBit!
    Комментировать посты могут только пользователи прошедшие не сложную регистрацию
    Показать сообщения:    

    Субура через торрент
    Скачать бесплатно Субура
    Субура скачать торрент
    Субура смотреть онлайн
    Cкачать фильм Субура бесплатно
    Субура скачать торрент в хорошем качестве
    Субура смотреть онлайн бесплатно в хорошем качестве


    Вы не можете начинать темы
    Вы не можете отвечать на сообщения
    Вы не можете редактировать свои сообщения
    Вы не можете удалять свои сообщения
    Вы не можете голосовать в опросах
    Вы не можете прикреплять файлы к сообщениям
    Вы можете скачивать файлы