2 сезон

iTunes

MVO

1

2 сезон

iTunes

iTunes

1 сезон

RePack

30

Новинка

ВАЖНО

ИГРА 18+

pack

RePack

MK11
pack

Легкие деньги

RePack

jed

RePack

fifa19

RePack

RDR2

RePack

NEED FOR SPEED™ PAYBACK

4 сезон

9 сезон

Бесстыжие 9 сезон

Все сериалы

все сериалы на PB.wtf

RePack

FAR CRY 5

Anonymous, добрый день, мы не успеваем собрать деньги на оплату серверов за декабрь и январь, помогите нам пожалуйста в это трудное время. В качестве благодарности мы отключим Вам всю рекламу на сайте (укажите свой ник в строку Ваше имя)!

×
  
Magnet ссылка

Тёмная башня / The Dark Tower (Николай Арсель / Nikolaj Arcel) [2017, США, ужасы, фантастика, фэнтези, BDRip-AVC] Dub [Лицензия] pb.wtf

Тёмная башня через торрент pb.wtf

Раздают: 1 [ 0 KB/s ]
Размер: 2.23 GB | Добавлен: 3 года 2 мес. назад | Торрент скачан:965 раз
Скачать  

27-10-2017 13:51 Тёмная башня Скачать торрент  

Тёмная башня
The Dark Tower

«Есть и другие миры, кроме этих»


Страна: США
Жанр: ужасы, фантастика, фэнтези, боевик, приключения, вестерн

Год выпуска: 2017
Продолжительность: 01:34:44

Перевод: Профессиональный (полное дублирование) [Blu-ray EUR]
Субтитры: русские (форсированные, полные), английские (полные, SDH, SDH цветные)
Оригинальная аудиодорожка: английский

Режиссер: Николай Арсель / Nikolaj Arcel

В ролях: Идрис Эльба, Мэттью МакКонахи, Том Тейлор, Клаудия Ким, Фрэн Кранц, Эбби Ли, Джеки Эрл Хейли, Кэтрин Уинник, Деннис Хейсбёрт, Майкл Барбиери, Хосе Суньига, Николас Хэмилтон

Описание:
Наш мир - не единственный из существующих. Заклятые враги Роланд Дискейн, последний из ордена стрелков, и Уолтер О’Дим, известный также как Человек в черном, ведут извечную борьбу. На кону - мифическая Темная Башня, последний оплот и надежда вселенной, без которой мир будет повержен в полный хаос и разрушение. Силам добра и зла суждено столкнуться в последней схватке, ведь Роланд Дискейн - единственный, кому под силу остановить Человека в черном, прежде чем тот разрушит Темную Башню.



Релиз:

Автор рипа: stalkerok | Моя группа

Сэмпл

Качество видео: BDRip-AVC [The.Dark.Tower.2017.D.BDREMUX.1080p.ExKinoRay]
Формат видео: MKV
Видео кодек: AVC
Аудио кодек: AC3
Видео: 2471 Кбит/сек, 1152*480 (2,40:1), в 23,976 (24000/1001) кадра/сек, AVC
Аудио #1: русский, 448 Кбит/сек, 48 КГц, 5.1, AC3
Аудио #2: английский, 448 Кбит/сек, 48 КГц, 5.1, AC3
Навигация по главам: есть

x264 [info]: frame I:1371 Avg QP:16.40 size: 72374
x264 [info]: frame P:31998 Avg QP:18.85 size: 25741
x264 [info]: frame B:102927 Avg QP:21.18 size: 8096

Общее
Уникальный идентификатор : 222486134700688666608119564081330410373 (0xA7614559E7DF13ECBBC978FD4D585385)
Полное имя : M:\!Rips2017\The Dark Tower (2017)\lic\The.Dark.Tower.2017.BDRip-AVC.RUS.ENG.stalkerok.new-team.mkv
Формат : Matroska
Версия формата : Version 4 / Version 2
Размер файла : 2,23 Гбайт
Продолжительность : 1 ч. 34 м.
Общий поток : 3370 Кбит/сек
Название фильма : The Dark Tower (2017) (Rip by stalkerok)
Дата кодирования : UTC 2017-11-25 18:43:40
Программа кодирования : mkvmerge v8.6.1 ('Flying') 64bit
Библиотека кодирования : libebml v1.3.3 + libmatroska v1.4.4

Видео
Идентификатор : 1
Формат : AVC
Формат/Информация : Advanced Video Codec
Профиль формата : High@L4.1
Параметр CABAC формата : Да
Параметр ReFrames формата : 13 кадров
Идентификатор кодека : V_MPEG4/ISO/AVC
Продолжительность : 1 ч. 34 м.
Битрейт : 2471 Кбит/сек
Ширина : 1152 пикселя
Высота : 480 пикселей
Соотношение сторон : 2,40:1
Режим частоты кадров : Постоянный
Частота кадров : 23,976 (24000/1001) кадра/сек
Цветовое пространство : YUV
Субдискретизация насыщенности : 4:2:0
Битовая глубина : 8 бит
Тип развёртки : Прогрессивная
Бит/(Пиксели*Кадры) : 0.186
Размер потока : 1,64 Гбайт (73%)
Заголовок : The Dark Tower (2017) (Rip by stalkerok)
Библиотека кодирования : x264 core 150 r2833kMod df79067
Настройки программы : cabac=1 / ref=13 / deblock=1:-3:-2 / analyse=0x3:0x133 / me=umh / subme=11 / psy=1 / fade_compensate=0.00 / psy_rd=1.00:0.00 / mixed_ref=1 / me_range=32 / chroma_me=1 / trellis=2 / 8x8dct=1 / cqm=0 / deadzone=21,11 / fast_pskip=0 / chroma_qp_offset=-2 / threads=12 / lookahead_threads=3 / sliced_threads=0 / nr=0 / decimate=1 / interlaced=0 / bluray_compat=0 / constrained_intra=0 / bframes=13 / b_pyramid=2 / b_adapt=2 / b_bias=0 / direct=3 / weightb=1 / open_gop=0 / weightp=2 / keyint=240 / keyint_min=23 / scenecut=40 / intra_refresh=0 / rc_lookahead=60 / rc=crf / mbtree=0 / crf=17.9000 / qcomp=0.65 / qpmin=0 / qpmax=69 / qpstep=4 / vbv_maxrate=50000 / vbv_bufsize=62500 / crf_max=0.0 / nal_hrd=none / filler=0 / ip_ratio=1.40 / pb_ratio=1.30 / aq=3:0.80 / zones=125976,136295,q=34
Default : Да
Forced : Нет

Аудио #1
Идентификатор : 2
Формат : AC-3
Формат/Информация : Audio Coding 3
Расширение режима : CM (complete main)
Параметр Endianness формата : Big
Идентификатор кодека : A_AC3
Продолжительность : 1 ч. 34 м.
Вид битрейта : Постоянный
Битрейт : 448 Кбит/сек
Каналы : 6 каналов
Расположение каналов : Front: L C R, Side: L R, LFE
Частота : 48,0 КГц
Частота кадров : 31,250 кадров/сек (1536 spf)
Метод сжатия : С потерями
Размер потока : 304 Мбайт (13%)
Язык : Russian
Default : Да
Forced : Нет

Аудио #2
Идентификатор : 3
Формат : AC-3
Формат/Информация : Audio Coding 3
Расширение режима : CM (complete main)
Параметр Endianness формата : Big
Идентификатор кодека : A_AC3
Продолжительность : 1 ч. 34 м.
Вид битрейта : Постоянный
Битрейт : 448 Кбит/сек
Каналы : 6 каналов
Расположение каналов : Front: L C R, Side: L R, LFE
Частота : 48,0 КГц
Частота кадров : 31,250 кадров/сек (1536 spf)
Метод сжатия : С потерями
Размер потока : 304 Мбайт (13%)
Язык : English
Default : Нет
Forced : Нет

Текст #1
Идентификатор : 4
Формат : UTF-8
Идентификатор кодека : S_TEXT/UTF8
Идентификатор кодека/Информация : UTF-8 Plain Text
Продолжительность : 1 ч. 33 м.
Битрейт : 0 бит/сек
Count of elements : 10
Размер потока : 575 байт (0%)
Заголовок : Forced
Язык : Russian
Default : Да
Forced : Нет

Текст #2
Идентификатор : 5
Формат : UTF-8
Идентификатор кодека : S_TEXT/UTF8
Идентификатор кодека/Информация : UTF-8 Plain Text
Продолжительность : 1 ч. 33 м.
Битрейт : 57 бит/сек
Count of elements : 889
Размер потока : 39,3 Кбайт (0%)
Язык : Russian
Default : Нет
Forced : Нет

Текст #3
Идентификатор : 6
Формат : UTF-8
Идентификатор кодека : S_TEXT/UTF8
Идентификатор кодека/Информация : UTF-8 Plain Text
Продолжительность : 1 ч. 26 м.
Битрейт : 40 бит/сек
Count of elements : 903
Размер потока : 25,3 Кбайт (0%)
Язык : English
Default : Нет
Forced : Нет

Текст #4
Идентификатор : 7
Формат : UTF-8
Идентификатор кодека : S_TEXT/UTF8
Идентификатор кодека/Информация : UTF-8 Plain Text
Продолжительность : 1 ч. 33 м.
Битрейт : 41 бит/сек
Count of elements : 1058
Размер потока : 28,4 Кбайт (0%)
Заголовок : SDH
Язык : English
Default : Нет
Forced : Нет

Текст #5
Идентификатор : 8
Формат : UTF-8
Идентификатор кодека : S_TEXT/UTF8
Идентификатор кодека/Информация : UTF-8 Plain Text
Продолжительность : 1 ч. 33 м.
Битрейт : 66 бит/сек
Count of elements : 1055
Размер потока : 45,8 Кбайт (0%)
Заголовок : SDH Colored
Язык : English
Default : Нет
Forced : Нет

Меню
00:00:00.000 : en:00:00:00.000
00:05:51.643 : en:00:05:51.643
00:10:36.094 : en:00:10:36.094
00:16:33.618 : en:00:16:33.618
00:21:54.897 : en:00:21:54.897
00:25:35.534 : en:00:25:35.534
00:31:01.985 : en:00:31:01.985
00:36:25.183 : en:00:36:25.183
00:40:49.822 : en:00:40:49.822
00:46:02.134 : en:00:46:02.134
00:53:18.404 : en:00:53:18.404
00:58:42.853 : en:00:58:42.853
01:03:51.119 : en:01:03:51.119
01:10:37.650 : en:01:10:37.650
01:15:53.174 : en:01:15:53.174
01:21:15.204 : en:01:21:15.204
скриншот   скриншот   скриншот   скриншот   скриншот   скриншот  
pb.wtf



Скачать Тёмная башня через торрент http://i6.imageban.ru/out/2017/09/18/2ff75c0c358795c5946784cc1680714d.png Скачать фильм Тёмная башня через торрент бесплантно в хорошем качестве Описание:Наш мир - не единственный из существующих. Заклятые враги Роланд Дискейн, последний из ордена стрелков, и Уолтер О’Дим, известный ... 9.7 10 71
Info! Золотая раздача, скачанное не засчитывается.
Торрент: Зарегистрирован [2017-11-26 11:39] · скачан: 965 раз
Статус: √ проверено
Размер: 2.23 GB
Как cкачать? Как скачать Тёмная башня через торрент | UTorrent

% Раздел Тема Автор DL S | L
Фильмы [HD 720p, 1080p] (Хороший звук DUB, MVO) [ 4.35 GB ] Тёмная башня / The Dark Tower [2017 BDRip 720p] DUB + 2xAVO - KORSAR kisa1980 Скачать
2 | 0
T Ultra HD (UHD: 2K, 4K, 8K) — видео сверхвысокой чёткости [ 36.98 GB ] Тёмная башня / The Dark Tower [2017 UHD BDRemux 2160p] DUB [Dolby Vision TV] sheker187 Скачать
1 | 0
Фильмы [HD 720p, 1080p] (Хороший звук DUB, MVO) [ 4.3 GB ] Тёмная башня / The Dark Tower [2017 BDRip-HEVC 1080p ] DUB [] bober100 Скачать
1 | 0
Фильмы (Blu-ray, BD-Remux, HDDVD) [ 23.07 GB ] Тёмная башня / The Dark Tower [2017 BD Remux 1080p] 2xAVO [Живов Володарский] +2xDUB [Sergesha ] bober100 Скачать
1 | 0
Ultra HD (UHD: 2K, 4K, 8K) — видео сверхвысокой чёткости [ 47.89 GB ] Тёмная башня / The Dark Tower [2017 UHD Blu-ray 2160p] DUB [] bober100 Скачать
1 | 0
Фильмы [HD 720p, 1080p] (Хороший звук DUB, MVO) [ 7.46 GB ] Тёмная башня / The Dark Tower [2017 BDRip 1080p] DUB [] bober100 Скачать
1 | 0
Ultra HD (UHD: 2K, 4K, 8K) — видео сверхвысокой чёткости [ 40.5 GB ] Тёмная башня / The Dark Tower [2017 UHD BDRemux 2160p] - [] sheker187 Скачать
1 | 0


Последний раз редактировалось: sokol_ok (2017-11-26 11:39), всего редактировалось 1 раз

28-11-2019 20:33  

Отключить всю рекламу на сайте

28-10-2017 04:04 Тёмная башня Скачать торрент  

sokol_ok писал(а):

Мэттью МакКонахи

хм , походу с фильмом он не попал. Обычно с его участием не ниже 8-ки кино. Даже и смотреть не буду.
Релизеру респект.pb.wtf



28-10-2017 14:36 Тёмная башня Скачать торрент  

Ворон писал(а):

sokol_ok писал(а):

Мэттью МакКонахи

хм , походу с фильмом он не попал. Обычно с его участием не ниже 8-ки кино. Даже и смотреть не буду.
Релизеру респект.

Да норм кинцо, просто загнобили за то, что стрелка талерасты сделали черным.pb.wtf



28-10-2017 16:52 Тёмная башня Скачать торрент  

Смотрю на Стрелка, а слышу Себастьяна Кастелланоса из The Evil Within 2)))pb.wtf



28-10-2017 22:28 Тёмная башня Скачать торрент  

Это вот для детей? Сисек и голых жоп нет но взять вот так режиссеру грохнуть родителей и мелкий чуть позже становится крутяком. Энтропия недокинематографа короче.pb.wtf



01-11-2017 19:15 Тёмная башня Скачать торрент  

Фильм не плохой, можно посмотреть.pb.wtf



02-11-2017 07:01 Тёмная башня Скачать торрент  

Хм,читал одноимённую книгу когда то. Надо качнуть.pb.wtf



04-11-2017 17:56 Тёмная башня Скачать торрент  

фентази на вечерок пойдетpb.wtf



04-11-2017 18:06 Тёмная башня Скачать торрент  

Ворон писал(а):

sokol_ok писал(а):

Мэттью МакКонахи

хм , походу с фильмом он не попал. Обычно с его участием не ниже 8-ки кино. Даже и смотреть не буду.
Релизеру респект.

один Интерстеллар у него 8.58 на кинопоиске и сериал Настоящий детектив 2014 больше 8-ки и всеpb.wtf



04-11-2017 20:53 Тёмная башня Скачать торрент  

если я слушаю сейчас 3-ю книгу,будет ли этот фильм спойлером? pb.wtf



26-11-2017 11:40 Тёмная башня Скачать торрент  

Замена звука на Blu-ray EUR.pb.wtf



26-11-2017 20:07 Тёмная башня Скачать торрент  

piece of shit писал(а):

если я слушаю сейчас 3-ю книгу,будет ли этот фильм спойлером?

фильм скорее основан на "темная башня" могу сказать смело смотри. Для тех кто читал будет удивительно, для тех кто не читал, ничего не понятно. очередная загубленная экранизация по Стивену Кингу. Разок посмотреть можно. Мне очень вторая книга понравилась.pb.wtf



10-12-2017 17:34 Тёмная башня Скачать торрент  

Чушь фильм 4 балла! фигота ! спец эфекты выстрелы нормо! концовка нормо. остальное унылая мутьpb.wtf



    Дорогой пользователь! Огромная просьба, поблагодарите релизера, оцените раздачу и оставьте свои комментарий, если Вы скачали Тёмная башня через торрент бесплатно! Внесите свою лепту в развитие PiratBit!
    Комментировать посты могут только пользователи прошедшие не сложную регистрацию
    Показать сообщения:    

    Тёмная башня через торрент
    Скачать бесплатно Тёмная башня
    Тёмная башня скачать торрент
    Тёмная башня смотреть онлайн
    Cкачать фильм Тёмная башня бесплатно
    Тёмная башня скачать торрент в хорошем качестве
    Тёмная башня смотреть онлайн бесплатно в хорошем качестве


    Вы не можете начинать темы
    Вы не можете отвечать на сообщения
    Вы не можете редактировать свои сообщения
    Вы не можете удалять свои сообщения
    Вы не можете голосовать в опросах
    Вы не можете прикреплять файлы к сообщениям
    Вы можете скачивать файлы