Ссылка на приватное зеркало нашего сайта всего за 1$. Внимание количество ограничено!!!

2 сезон

iTunes

1 сезон

1

2 сезон

2 сезон

iTunes

1 сезон

RePack

30

Новинка

ВАЖНО

ИГРА 18+

pack

RePack

MK11
pack

Забери бонус

RePack

jed

!!Акция!!

Alien_Rage

RePack

fifa19

RePack

Assassins Creed: Odyssey

RePack

NEED FOR SPEED™ PAYBACK

4 сезон

9 сезон

Бесстыжие 9 сезон

Все сериалы

все сериалы на PB.wtf

RePack

FAR CRY 5
  

Очень странные дела / Stranger Things / Сезон 2 / Серии 1-9 из 9 (Мэтт Даффер, Росс Даффер, Шон Леви) [2017, Ужасы, триллер, драма, WEBRip 720p] DVO [SunshineStudio] pb.wtf

Очень странные дела через торрент pb.wtf

Размер: 7.64 GB | Добавлен: 3 года назад | Торрент скачан:160 раз
Скачать  

27-10-2017 15:51 Очень странные дела Скачать торрент  

Очень странные дела / Stranger ThingsГод выпуска: 2017
Страна: США
Жанр: Ужасы, триллер, драма
Продолжительность: 9 x ~ 00:44:00
Перевод: Любительский (двухголосый) -
Субтитры: отсутствуют

Режиссер: Мэтт Даффер, Росс Даффер, Шон Леви

rating

В ролях:

Вайнона Райдер, Дэвид Харбор, Финн Вулфард, Милли Бобби Браун, Гейтен Матараццо, Калеб МакЛафлин, Наталия Дайер, Чарли Хитон, Кара Буоно, Мэттью Модайн, Джо Кири, Роб Морган, Джон Рейнольдс, Джо Крест, Ной Шнапп, Марк Стегер, Рэндолл П. Хевенс, Катрин Дайер

Описание:

Главное действие нового телевизионного сериала разворачивается в 80-х годах на территории тихого провинциального города. Благоприятное течение местной жизни нарушает загадочное исчезновение подростка по имени Уилл. Выяснить обстоятельства дела, полны решимости родные мальчика и местный шериф. Также события затрагивают лучшего друга Уилла – Майка. Он начинает собственное расследование, в процессе которого встречает группу людей со сверхспособностями. Теперь Майк уверен, что близок к разгадке, однако для этого ему предстоит оказаться в эпицентре ожесточенной битвы потусторонних сил.

Качество: WEBRip 720p
Формат: MKV
Видео кодек: H.264
Аудио кодек: AC3

Видео: MPEG-4 AVC, ~ 2700 Кбит/с, 1280x640
Аудио: Русский (AC3, 2 ch, 192 Кбит/с)
скриншот   скриншот   скриншот   скриншот  

Общее
Уникальный идентификатор : 194604274400462763723740165641997938296 (0x92676B8103CC4578A1A8B14EAA886E78)
Полное имя : D:\Stranger.Things.S02.720p.SunshineStudio\Stranger.Things.S02E01.720p.SunshineStudio.mkv
Формат : Matroska
Версия формата : Version 4 / Version 2
Размер файла : 993 Мбайт
Продолжительность : 48 м. 27 с.
Общий поток : 2865 Кбит/сек
Дата кодирования : UTC 2017-10-27 13:18:33
Программа кодирования : mkvmerge v8.3.0 ('Over the Horizon') 64bit
Библиотека кодирования : libebml v1.3.1 + libmatroska v1.4.2

Видео
Идентификатор : 1
Формат : AVC
Формат/Информация : Advanced Video Codec
Профиль формата : High@L3.1
Параметр CABAC формата : Да
Параметр ReFrames формата : 4 кадра
Идентификатор кодека : V_MPEG4/ISO/AVC
Продолжительность : 48 м. 27 с.
Битрейт : 2671 Кбит/сек
Ширина : 1280 пикселей
Высота : 640 пикселей
Соотношение сторон : 2,000
Режим частоты кадров : Постоянный
Частота кадров : 23,976 кадра/сек
Цветовое пространство : YUV
Субдискретизация насыщенности : 4:2:0
Битовая глубина : 8 бит
Тип развёртки : Прогрессивная
Бит/(Пиксели*Кадры) : 0.136
Размер потока : 926 Мбайт (93%)
Библиотека кодирования : x264 core 146 r2538 121396c
Настройки программы : cabac=1 / ref=1 / deblock=1:0:0 / analyse=0x3:0x113 / me=hex / subme=2 / psy=1 / psy_rd=1.00:0.10 / mixed_ref=0 / me_range=16 / chroma_me=1 / trellis=0 / 8x8dct=1 / cqm=0 / deadzone=21,11 / fast_pskip=1 / chroma_qp_offset=0 / threads=18 / lookahead_threads=5 / sliced_threads=0 / nr=0 / decimate=1 / interlaced=0 / bluray_compat=0 / constrained_intra=0 / bframes=3 / b_pyramid=2 / b_adapt=1 / b_bias=0 / direct=1 / weightb=1 / open_gop=0 / weightp=1 / keyint=250 / keyint_min=23 / scenecut=40 / intra_refresh=0 / rc_lookahead=10 / rc=crf / mbtree=1 / crf=17.0 / qcomp=0.60 / qpmin=0 / qpmax=69 / qpstep=4 / ip_ratio=1.40 / aq=1:1.00
Default : Да
Forced : Нет

Аудио
Идентификатор : 2
Формат : AC-3
Формат/Информация : Audio Coding 3
Расширение режима : CM (complete main)
Параметр Endianness формата : Big
Идентификатор кодека : A_AC3
Продолжительность : 48 м. 27 с.
Вид битрейта : Постоянный
Битрейт : 192 Кбит/сек
Каналы : 2 канала
Расположение каналов : Front: L R
Частота : 48,0 КГц
Частота кадров : 31,250 кадров/сек (1536 spf)
Метод сжатия : С потерями
Размер потока : 66,6 Мбайт (7%)
Default : Да
Forced : Нет

Внимание! Раздача ведётся путём добавления новых серий. При каждом добавлении создаётся новый торрент.
Чтобы начать докачку новой серии, пользователям необходимо сделать следующее:
1. Остановить скачивание.
2. Удалить старый торрент у себя из клиента (старые серии удалять не надо).
3. Скачать новый торрент и запустить его у себя в клиенте вместо старого, при этом указать клиенту путь в старую папку куда и должно происходить скачивание новых серий. Ваш клиент при этом должен произвести хеширование (проверку) старой папки и будет докачивать только те серии, которых у вас ещё нет. Старые серии при этом не удаляются, а продолжают раздаваться! Eсли вы уже удалили старые серии, то предотвратить повторную закачку старых серий можно, отжав галочку в соответствующих местах при запуске нового торрента.
pb.wtf



Скачать Очень странные дела через торрент http://i89.fastpic.ru/big/2017/1027/46/28650531fb8b9cc5e5df37121b6da546.jpg Скачать фильм Очень странные дела через торрент бесплантно в хорошем качестве Описание: Главное действие нового телевизионного сериала разворачивается в 80-х годах на территории тихого провинциального города. ... 10 10 9
Info! Золотая раздача, скачанное не засчитывается.
Торрент: Зарегистрирован [2017-10-28 01:06] · скачан: 160 раз
Статус: √ проверено
Размер: 7.64 GB
Как cкачать? Как скачать Очень странные дела через торрент | qTorrent

% Раздел Тема Автор DL S | L
Зарубежные сериалы [ 21.98 GB ] Очень странные дела / Stranger Things / Сезон: 2 / Серии: 1-9 из 9 [2017 BDRip-HEVC 1080p] DUB + 2xMVO RealOldGamer Скачать
2 | 1
Зарубежные сериалы [ 156.64 GB ] Очень странные дела / Stranger Things / 2 сезон / 1-9 серии из 9 [2017 UHD BDRemux 2160p] DUB + 2xMVO [LostFilm NewStudio] sheker187 Скачать
5 | 0
Ultra HD (UHD: 2K, 4K, 8K) — видео сверхвысокой чёткости [ 130.37 GB ] Очень странные дела / Stranger Things / Сезон 2 / Серии 1-9 из 9 [2017 UHD WEBRip 2160p] MVO [Good People LostFilm] bober100 Скачать
1 | 0
Зарубежные сериалы [ 50.74 GB ] Очень странные дела / Stranger Things / Сезон: 2 / Серии 1-9 из 9 [2017 WEBRip 1080p] [MVO] killermax2013 Скачать
1 | 0
Зарубежные сериалы [ 5.85 GB ] Очень странные дела / Stranger Things / Сезон: 2 / Серии 1-9 из 9 [2017 WEBRip] [MVO] killermax2013 Скачать
1 | 0
Зарубежные сериалы [ 4.45 GB ] Очень странные дела / Stranger Things / Сезон: 2 / Серии 1-9 из 9 [2017 WEBRip] [MVO] killermax2013 Скачать
1 | 0
Зарубежные сериалы [ 20.06 GB ] Очень странные дела / Stranger Things / Сезон: 2 / Серии 1-9 из 9 [2017 WEB-DLRip 1080p] [MVO] killermax2013 Скачать
1 | 0


Последний раз редактировалось: bober100 (2017-10-28 01:06), всего редактировалось 1 раз

28-11-2019 20:33  

Отключить всю рекламу на сайте

27-10-2017 16:57 Очень странные дела Скачать торрент  

Осталось дождатся в озвучьке Jaskier без вариантов так-как 1 сезон смотрел с другими и это полная лажа особенно отмосферность пиндюковских голосовpb.wtf



27-10-2017 16:59 Очень странные дела Скачать торрент  

FUCKING AWESOME!!!pb.wtf



27-10-2017 17:00 Очень странные дела Скачать торрент  

круто)))pb.wtf



27-10-2017 17:08 Очень странные дела Скачать торрент  

подскажите он целиком вышел, или в неделю по серии?pb.wtf



27-10-2017 18:17 Очень странные дела Скачать торрент  

а почему скрины из первого сезона?pb.wtf



01-11-2017 19:01 Очень странные дела Скачать торрент  

bober100, сэмпл,плизpb.wtf



    Дорогой пользователь! Огромная просьба, поблагодарите релизера, оцените раздачу и оставьте свои комментарий, если Вы скачали Очень странные дела через торрент бесплатно! Внесите свою лепту в развитие PiratBit!
    Комментировать посты могут только пользователи прошедшие не сложную регистрацию
    Показать сообщения:    

    Очень странные дела через торрент
    Скачать бесплатно Очень странные дела
    Очень странные дела скачать торрент
    Очень странные дела смотреть онлайн
    Cкачать фильм Очень странные дела бесплатно
    Очень странные дела скачать торрент в хорошем качестве
    Очень странные дела смотреть онлайн бесплатно в хорошем качестве


    Вы не можете начинать темы
    Вы не можете отвечать на сообщения
    Вы не можете редактировать свои сообщения
    Вы не можете удалять свои сообщения
    Вы не можете голосовать в опросах
    Вы не можете прикреплять файлы к сообщениям
    Вы можете скачивать файлы