Ссылка на приватное зеркало нашего сайта всего за 1$. Внимание количество ограничено!!!

2 сезон

iTunes

1 сезон

1

2 сезон

2 сезон

iTunes

1 сезон

RePack

30

Ultimate

ВАЖНО

ИГРА 18+

pack

RePack

MK11
pack

Забери бонус

RePack

jed

!!Акция!!

Alien_Rage

RePack

fifa19

RePack

Assassins Creed: Odyssey

RePack

NEED FOR SPEED™ PAYBACK

4 сезон

9 сезон

Бесстыжие 9 сезон

Все сериалы

все сериалы на PB.wtf

RePack

FAR CRY 5
  

Бронзовый сад / El Jardín de Bronce / Сезон: 1 / Серии 1-8 из 8 (Пабло Фендрик, Эрнан А. Голфрид) [2017, США, Аргентина, Детектив, криминал, триллер, HDTVRip 720p] DVO [ViruseProject] pb.wtf

Бронзовый сад через торрент pb.wtf

Размер: 10.96 GB | Добавлен: 3 года 1 мес. назад | Торрент скачан:17 раз
Скачать  

28-10-2017 00:05 Бронзовый сад Скачать торрент  

Бронзовый сад / El Jardín de Bronce


  • Год выпуска: 2017
  • Страна: США, Аргентина
  • Жанр: Детектив, криминал, триллер
  • Продолжительность: ~ 00:55:00 (Серия)
  • Перевод: Любительский двухголосый
  • Субтитры: русские, английские UTF-8
  • Примечание: Есть реклама
  • Режиссер: Пабло Фендрик, Эрнан А. Голфрид
  • В ролях:
    Норма Алеандро, Даниэль Фанего, Хоакин Фуррьель и др.


  • Жизнь Фабиана и Лилы Данубио навсегда меняется, когда их четырехлетняя дочь бесследно исчезает в метро Буэнос-Айреса. Нет никаких мотивов, никаких улик и свидетелей. Родители ведут отчаянные поиски на протяжении многих лет и, наконец, приходят к удивительному выводу.
  • Рейтинг:


  • Качество: HDTVRip 720p
  • Формат: :MKV
  • Видео кодек: AVC
  • Аудио кодек: AC3
  • Видео: 3505 Кбит/сек, 1280*720 (16:9), в 30,000 кадров/сек, AVC
  • Аудио №1: Русский 192 Кбит/сек, 48,0 КГц, 16 бит, 2 канала, AC-3
  • Аудио №2: Испанский 192 Кбит/сек, 48,0 КГц, 16 бит, 2 канала, AC-3

    Общее
    Уникальный идентификатор : 253744689811071343440048667773465656686 (0xBEE5731B30AFFE7AB060F22AE0ADFD6E)
    Полное имя : I:\El.Jardin.de.Bronce.S01.720p.ViruseProject\El.Jardin.de.Bronce.S01E08.720p.ViruseProject.mkv
    Формат : Matroska
    Версия формата : Version 4 / Version 2
    Размер файла : 1,57 Гбайт
    Продолжительность : 57 м. 44 с.
    Общий поток : 3890 Кбит/сек
    Название фильма : REALITYKINGS ™ - O Zica dos Releases
    Дата кодирования : UTC 2017-10-27 17:59:47
    Программа кодирования : mkvmerge v8.3.0 ('Over the Horizon') 64bit
    Библиотека кодирования : libebml v1.3.1 + libmatroska v1.4.2

    Видео
    Идентификатор : 1
    Формат : AVC
    Формат/Информация : Advanced Video Codec
    Профиль формата : High@L4.1
    Параметр CABAC формата : Да
    Параметр RefFrames формата : 5 кадров
    Идентификатор кодека : V_MPEG4/ISO/AVC
    Продолжительность : 57 м. 42 с.
    Битрейт : 3505 Кбит/сек
    Ширина : 1280 пикселей
    Высота : 720 пикселей
    Соотношение сторон : 16:9
    Режим частоты кадров : Постоянный
    Частота кадров : 30,000 кадров/сек
    Цветовое пространство : YUV
    Субдискретизация насыщенности : 4:2:0
    Битовая глубина : 8 бит
    Тип развёртки : Прогрессивная
    Бит/(Пиксели*Кадры) : 0.127
    Размер потока : 1,41 Гбайт (90%)
    Заголовок : El.Jardin.de.Bronce.S01E08.720p.HDTV.X264-RK
    Библиотека кодирования : x264 core 148 r2762 90a61ec
    Настройки программы : cabac=1 / ref=5 / deblock=1:0:0 / analyse=0x3:0x133 / me=umh / subme=10 / psy=1 / psy_rd=1.00:0.00 / mixed_ref=1 / me_range=24 / chroma_me=1 / trellis=2 / 8x8dct=1 / cqm=0 / deadzone=21,11 / fast_pskip=1 / chroma_qp_offset=-4 / threads=6 / lookahead_threads=1 / sliced_threads=0 / nr=0 / decimate=1 / interlaced=0 / bluray_compat=0 / stitchable=1 / constrained_intra=0 / bframes=5 / b_pyramid=2 / b_adapt=2 / b_bias=0 / direct=3 / weightb=1 / open_gop=0 / weightp=2 / keyint=300 / keyint_min=30 / scenecut=40 / intra_refresh=0 / rc_lookahead=60 / rc=crf / mbtree=1 / crf=19.0 / qcomp=0.60 / qpmin=0 / qpmax=69 / qpstep=4 / vbv_maxrate=62500 / vbv_bufsize=78125 / crf_max=0.0 / nal_hrd=none / filler=0 / ip_ratio=1.40 / aq=1:1.00
    Язык : Spanish
    Default : Да
    Forced : Нет
    Цветовой диапазон : Limited
    Основные цвета : BT.709
    Характеристики трансфера : BT.709
    Коэффициенты матрицы : BT.601

    Аудио #1
    Идентификатор : 2
    Формат : AC-3
    Формат/Информация : Audio Coding 3
    Параметр Endianness формата : Big
    Идентификатор кодека : A_AC3
    Продолжительность : 57 м. 43 с.
    Вид битрейта : Постоянный
    Битрейт : 192 Кбит/сек
    Каналы : 2 канала
    Расположение каналов : Front: L R
    Частота : 48,0 КГц
    Частота кадров : 31,250 кадров/сек (1536 SPF)
    Битовая глубина : 16 бит
    Метод сжатия : С потерями
    Размер потока : 79,3 Мбайт (5%)
    Заголовок : ViruseProject
    Язык : Russian
    ServiceKind/String : Complete Main
    Default : Нет
    Forced : Нет

    Аудио #2
    Идентификатор : 3
    Формат : AC-3
    Формат/Информация : Audio Coding 3
    Параметр Endianness формата : Big
    Идентификатор кодека : A_AC3
    Продолжительность : 57 м. 44 с.
    Вид битрейта : Постоянный
    Битрейт : 192 Кбит/сек
    Каналы : 2 канала
    Расположение каналов : Front: L R
    Частота : 44,1 КГц
    Частота кадров : 28,711 кадров/сек (1536 SPF)
    Битовая глубина : 16 бит
    Метод сжатия : С потерями
    Размер потока : 79,3 Мбайт (5%)
    Язык : Spanish
    ServiceKind/String : Complete Main
    Default : Нет
    Forced : Нет

    Текст #1
    Идентификатор : 4
    Формат : UTF-8
    Идентификатор кодека : S_TEXT/UTF8
    Идентификатор кодека/Информация : UTF-8 Plain Text
    Продолжительность : 56 м. 15 с.
    Битрейт : 58 бит/сек
    ElementCount : 501
    Размер потока : 24,3 Кбайт (0%)
    Заголовок : ViruseProject
    Язык : Russian
    Default : Нет
    Forced : Нет

    Текст #2
    Идентификатор : 5
    Формат : UTF-8
    Идентификатор кодека : S_TEXT/UTF8
    Идентификатор кодека/Информация : UTF-8 Plain Text
    Продолжительность : 55 м. 58 с.
    Битрейт : 34 бит/сек
    ElementCount : 500
    Размер потока : 14,3 Кбайт (0%)
    Язык : English
    Default : Нет
    Forced : Нет


    https://www.youtube.com/watch?time_continue=6&v=iek2HWqUR5E

    Скриншоты:
    скриншот   скриншот   скриншот   скриншот   скриншот   скриншот   скриншот  
    скриншот  


    pb.wtf



  • Скачать Бронзовый сад через торрент http://pic1.kartinco.top/images/11/ux9vj.jpg Скачать фильм Бронзовый сад через торрент бесплантно в хорошем качестве qw.png Жизнь Фабиана и Лилы Данубио навсегда меняется, когда их четырехлетняя дочь бесследно исчезает в метро Буэнос-Айреса. Нет никаких ... 10 10 2
    Info! Золотая раздача, скачанное не засчитывается.
    Торрент: Зарегистрирован [2017-10-28 00:05] · скачан: 17 раз
    Статус: √ проверено
    Размер: 10.96 GB
    Как cкачать? Как скачать Бронзовый сад через торрент | qTorrent

    % Раздел Тема Автор DL S | L
    Зарубежные сериалы [ 6.67 GB ] Бронзовый сад / El Jardín de Bronce / Сезон: 1 / Серии 1-8 из 8 [2017 Аргентина HDTVRip] DVO [ViruseProject] GEKADOL Скачать
    1 | 0

    28-11-2019 20:33  

    Отключить всю рекламу на сайте

      Дорогой пользователь! Огромная просьба, поблагодарите релизера, оцените раздачу и оставьте свои комментарий, если Вы скачали Бронзовый сад через торрент бесплатно! Внесите свою лепту в развитие PiratBit!
      Комментировать посты могут только пользователи прошедшие не сложную регистрацию
      Показать сообщения:    

      Бронзовый сад через торрент
      Скачать бесплатно Бронзовый сад
      Бронзовый сад скачать торрент
      Бронзовый сад смотреть онлайн
      Cкачать фильм Бронзовый сад бесплатно
      Бронзовый сад скачать торрент в хорошем качестве
      Бронзовый сад смотреть онлайн бесплатно в хорошем качестве


      Вы не можете начинать темы
      Вы не можете отвечать на сообщения
      Вы не можете редактировать свои сообщения
      Вы не можете удалять свои сообщения
      Вы не можете голосовать в опросах
      Вы не можете прикреплять файлы к сообщениям
      Вы можете скачивать файлы