Всегда рабочее зеркало без VPN и Proxy просто перед .vidak.icu напиши любое слово или цифру, Пример http://oukf.vidak.icu

iTunes

2 сезон

1 сезон

1

1 сезон

iTunes

2 сезон

13

1 сезон

Deluxe

pack

Рекомендуем

Пиратка

30

ВАЖНО

RePack

MK11

RePack

jed

RePack

fifa19

RePack

RDR2

RePack

NEED FOR SPEED™ PAYBACK

Кинопоиск HD

6 сезон

 Острые козырьки 6 сезон

Все сериалы

все сериалы на PB.wtf

RePack

FAR CRY 5

Anonymous, нам критически не хватает 5601 руб. на оплату серверов и переферии за Апрель, помоги нам пожалуйста, вся надежда только на тебя. В благодарность мы отключим тебе всю рекламу на сайте!

×
  
Magnet ссылка

Взрывная блондинка / Atomic Blonde (Дэвид Литч) [2017, Боевик, триллер, детектив, WEB-DLRip-AVC] DUB [iTunes], MVO - ExKinoRay pb.wtf

Взрывная блондинка через торрент pb.wtf

Раздают: 1 [ 0 KB/s ]
Размер: 2.11 GB | Добавлен: 4 года 7 мес. назад | Торрент скачан:2554 раза
Смотреть онлайн Взрывная блондинка | Скачать    Ребята, помогите собрать деньги на оплату серверов!!!

28-10-2017 04:00 Взрывная блондинка Скачать торрент  

Информация о фильме
Название: Взрывная блондинка
Оригинальное название: Atomic Blonde
Год выпуска: 2017
Жанр: Боевик, триллер, детектив
Страна: США
Студия: 87Eleven, Closed on Mondays Entertainment, Denver and Delilah Productions, Film i Väst 5. Focus Features, Sierra Pictures (III), T.G.I.M Films
Продолжительность: 01:55:34
Перевод: Дублированный | iTunes / Любительский (многоголосый, закадровый) Paradox & Omskbird records (полный перевод)
Режиссер: Дэвид Литч
В ролях: Шарлиз Терон, Джеймс МакЭвой, Эдди Марсан, Джон Гудмен, Тоби Джонс, Джеймс Фолкнер, Роланд Мёллер, София Бутелла, Билл Скарсгард, Сэм Харгрейв

Описание: Агент Лоррейн Бротон, бриллиант в короне Секретной разведывательной службы Ее Величества, не просто мастер шпионажа: она бомбически сексуальна, взрывоопасна и использует весь арсенал своих уникальных умений во время невыполнимых миссий. В неспокойном Берлине, куда ее направляют с заданием вернуть бесценное досье, она вынуждена объединиться с агентом под прикрытием Дэвидом Персивалем. Вместе им предстоит проложить путь через тернии смертельных шпионских игр…



Файл
Формат: MKV
Качество: WEB-DLRip-AVC
Видео: AVC, 1024х424 (2.40:1), 1659 kbps, 23,976 fps, 0,159 bpp
Аудио 1: 48 kHz, AC3, 5.1, 384 Kbps | RUS | iTunes
Аудио 2: 48 kHz, AC3, 2.0, 192 Kbps | RUS |
Аудио 3: 48 kHz, AC3, 5.1, 384 Kbps | ENG |
Субтитры: Русские (форсированные) на немецкую речь, английские
General
Unique ID : 174304612003256846449761186385698894906 (0x8321D8E02537D18B82F667132296343A)
Complete name : D:\Atomic.Blonde.2017.WEB-DLip.AVC.ExKinoRay.mkv
Format : Matroska
Format version : Version 2
File size : 2.11 GiB
Duration : 1 h 55 min
Overall bit rate : 2 619 kb/s
Movie name : Atomic Blonde 2017 from ExKinoRay
Encoded date : UTC 2017-10-28 03:32:48
Writing application : mkvmerge v5.6.0 ('Kenya Kane') built on May 27 2012 16:44:04
Writing library : libebml v1.2.3 + libmatroska v1.3.0

Video
ID : 1
Format : AVC
Format/Info : Advanced Video Codec
Format profile : High@L4.1
Format settings, CABAC : Yes
Format settings, ReFrames : 12 frames
Codec ID : V_MPEG4/ISO/AVC
Duration : 1 h 55 min
Bit rate : 1 659 kb/s
Width : 1 024 pixels
Height : 424 pixels
Display aspect ratio : 2.40:1
Frame rate mode : Constant
Frame rate : 23.976 (23976/1000) FPS
Color space : YUV
Chroma subsampling : 4:2:0
Bit depth : 8 bits
Scan type : Progressive
Bits/(Pixel*Frame) : 0.159
Stream size : 1.30 GiB (61%)
Title : Enigma
Writing library : x264 core 152 r2851 ba24899
Encoding settings : cabac=1 / ref=12 / deblock=1:-2:-2 / analyse=0x3:0x113 / me=umh / subme=10 / psy=1 / psy_rd=1.02:0.05 / mixed_ref=1 / me_range=32 / chroma_me=1 / trellis=2 / 8x8dct=1 / cqm=0 / deadzone=21,11 / fast_pskip=1 / chroma_qp_offset=-3 / threads=12 / lookahead_threads=3 / sliced_threads=0 / nr=0 / decimate=0 / interlaced=0 / bluray_compat=0 / constrained_intra=0 / bframes=10 / b_pyramid=2 / b_adapt=2 / b_bias=0 / direct=3 / weightb=1 / open_gop=0 / weightp=2 / keyint=240 / keyint_min=23 / scenecut=40 / intra_refresh=0 / rc_lookahead=40 / rc=2pass / mbtree=0 / bitrate=1659 / ratetol=1.0 / qcomp=0.60 / qpmin=0 / qpmax=51 / qpstep=4 / cplxblur=20.0 / qblur=0.5 / vbv_maxrate=50000 / vbv_bufsize=62500 / nal_hrd=none / filler=0 / ip_ratio=1.40 / pb_ratio=1.30 / aq=3:0.90
Language : English
Default : Yes
Forced : No
Color range : Limited
Color primaries : BT.709
Transfer characteristics : BT.709
Matrix coefficients : BT.709

Audio #1
ID : 2
Format : AC-3
Format/Info : Audio Coding 3
Mode extension : CM (complete main)
Format settings, Endianness : Big
Codec ID : A_AC3
Duration : 1 h 55 min
Bit rate mode : Constant
Bit rate : 384 kb/s
Channel(s) : 6 channels
Channel positions : Front: L C R, Side: L R, LFE
Sampling rate : 48.0 kHz
Frame rate : 31.250 FPS (1536 spf)
Compression mode : Lossy
Stream size : 317 MiB (15%)
Title : iTunes
Language : Russian
Default : Yes
Forced : No

Audio #2
ID : 3
Format : AC-3
Format/Info : Audio Coding 3
Mode extension : CM (complete main)
Format settings, Endianness : Big
Codec ID : A_AC3
Duration : 1 h 55 min
Bit rate mode : Constant
Bit rate : 192 kb/s
Channel(s) : 2 channels
Channel positions : Front: L R
Sampling rate : 48.0 kHz
Frame rate : 31.250 FPS (1536 spf)
Compression mode : Lossy
Stream size : 159 MiB (7%)
Title : MVO
Language : Russian
Default : No
Forced : No

Audio #3
ID : 4
Format : AC-3
Format/Info : Audio Coding 3
Mode extension : CM (complete main)
Format settings, Endianness : Big
Codec ID : A_AC3
Duration : 1 h 55 min
Bit rate mode : Constant
Bit rate : 384 kb/s
Channel(s) : 6 channels
Channel positions : Front: L C R, Side: L R, LFE
Sampling rate : 48.0 kHz
Frame rate : 31.250 FPS (1536 spf)
Compression mode : Lossy
Stream size : 317 MiB (15%)
Language : English
Default : No
Forced : No

Text #1
ID : 5
Format : UTF-8
Codec ID : S_TEXT/UTF8
Codec ID/Info : UTF-8 Plain Text
Title : Forced
Language : Russian
Default : Yes
Forced : No

Text #2
ID : 6
Format : UTF-8
Codec ID : S_TEXT/UTF8
Codec ID/Info : UTF-8 Plain Text
Language : English
Default : No
Forced : No
Релиз от:

Автор релиза: pb.wtf



Скачать Взрывная блондинка через торрент http://i91.fastpic.ru/big/2017/1026/8c/afbd31d697e0360b110a76af86bcf28c.jpg Скачать, смотреть онлайн Взрывная блондинка бесплантно в хорошем качестве Описание: Агент Лоррейн Бротон, бриллиант в короне Секретной разведывательной службы Ее Величества, не просто мастер шпионажа: она ... 9.3 10 38
Info! Золотая раздача, скачанное не засчитывается.
Торрент: Зарегистрирован [2017-10-28 04:00] · скачан: 2 554 раз
Статус: √ проверено
Размер: 2.11 GB
Как cкачать? Как скачать Взрывная блондинка через торрент | UTorrent

% Раздел Тема Автор DL S | L
Фильмы 2017 [DVDrip, WEB-DLRip, HDrip] (DUB, MVO) [ 2.36 GB ] Взрывная блондинка / Atomic Blonde [2017 HDRip-AVC] MVO - ExKinoRay Enigma2010 Скачать
1 | 0

28-11-2019 20:33  

Отключить всю рекламу на сайте

29-10-2017 21:06 Взрывная блондинка Скачать торрент  

Достойный фильм, рекомендую!pb.wtf



31-10-2017 15:24 Взрывная блондинка Скачать торрент  

можно было бы и разогнать фильм 2 из 5, автору спс за труды.pb.wtf



01-11-2017 19:19 Взрывная блондинка Скачать торрент  

Фильм не зашел, но автору спасибо.pb.wtf



01-11-2017 20:20 Взрывная блондинка Скачать торрент  

фильм огонь! очень прикольно и реалестично! особенно тиль швайгер сыграл не плохо аж 4 секунды в фильме)pb.wtf



08-11-2017 15:46 Взрывная блондинка Скачать торрент  

Фильм уныло Г.... Двойные агенты а то и тройные, сценария не какого. За что imbd дал оценку фильма 6.9 не известно. Не рекомендую...pb.wtf



28-03-2018 16:38 Взрывная блондинка Скачать торрент  

DesTrucT писал(а):

Фильм уныло Г.... Двойные агенты а то и тройные, сценария не какого. За что imbd дал оценку фильма 6.9 не известно. Не рекомендую...

нормальное кино... ни надо нам тут всякими Г... кидацо.pb.wtf



    Дорогой пользователь! Огромная просьба, поблагодарите релизера, оцените раздачу и оставьте свои комментарий, если Вы скачали Взрывная блондинка через торрент бесплатно!
    Комментировать посты могут только пользователи прошедшие не сложную регистрацию
    Показать сообщения:    

    Взрывная блондинка через торрент
    Скачать бесплатно Взрывная блондинка
    Взрывная блондинка скачать торрент
    Взрывная блондинка смотреть онлайн
    Cкачать фильм Взрывная блондинка бесплатно
    Взрывная блондинка скачать торрент в хорошем качестве
    Взрывная блондинка смотреть онлайн бесплатно в хорошем качестве


    Вы не можете начинать темы
    Вы не можете отвечать на сообщения
    Вы не можете редактировать свои сообщения
    Вы не можете удалять свои сообщения
    Вы не можете голосовать в опросах
    Вы не можете прикреплять файлы к сообщениям
    Вы можете скачивать файлы