Ссылка на приватное зеркало нашего сайта всего за 1$. Внимание количество ограничено!!!

2 сезон

iTunes

1 сезон

1

2 сезон

2 сезон

iTunes

1 сезон

RePack

30

Новинка

ВАЖНО

ИГРА 18+

pack

RePack

MK11
pack

Забери бонус

RePack

jed

!!Акция!!

Alien_Rage

RePack

fifa19

RePack

Assassins Creed: Odyssey

RePack

NEED FOR SPEED™ PAYBACK

4 сезон

9 сезон

Бесстыжие 9 сезон

Все сериалы

все сериалы на PB.wtf

RePack

FAR CRY 5
  

Очень странные дела / Stranger Things / Сезон: 2 / Серии 1-9 из 9 (Мэтт Даффер / Matt Duffer, Росс Даффер / Ross Duffer, Шон Леви / Shawn Levy) [2017, США, ужасы, триллер, драма, WEBRip 720p] MVO [BaibaKo] pb.wtf

Очень странные дела через торрент pb.wtf

Размер: 7.83 GB | Добавлен: 3 года назад | Торрент скачан:300 раз
Скачать  

28-10-2017 08:27 Очень странные дела Скачать торрент  


Очень странные дела / Stranger Things



  • Год выпуска: 2017
  • Страна: США
  • Жанр: ужасы, триллер, драма
  • Продолжительность: ~ 00:52:00 (Серия)
  • Перевод: Профессиональный многоголосый закадровый [BaibaKo]
  • Режиссер: Мэтт Даффер / Matt Duffer, Росс Даффер / Ross Duffer, Шон Леви / Shawn Levy
  • В ролях:

    Вайнона Райдер (Joyce Byers), Дэвид Харбор (Jim Hopper), Финн Вулфард (Mike Wheeler), Милли Бобби Браун (Eleven), Гейтен Матараццо (Dustin Henderson), Калеб МакЛафлин (Lucas Sinclair), Наталия Дайер (Nancy Wheeler), Чарли Хитон (Jonathan Byers), Кара Буоно (Karen Wheeler), Мэттью Модайн (Dr. Martin Brenner), Джо Кири (Steve Harrington), Роб Морган (Officer Powell)


  • Главное действие нового телевизионного сериала разворачивается в 80-х годах на территории тихого провинциального города. Благоприятное течение местной жизни нарушает загадочное исчезновение подростка по имени Уилл.
    Выяснить обстоятельства дела, полны решимости родные мальчика и местный шериф. Также события затрагивают лучшего друга Уилла – Майка. Он начинает собственное расследование, в процессе которого встречает группу людей со сверхспособностями. Теперь Майк уверен, что близок к разгадке, однако для этого ему предстоит оказаться в эпицентре ожесточенной битвы потусторонних сил.
  • Рейтинг:

    rating
  • Качество: WEBRip 720p
  • Формат: :MKV
  • Видео кодек: AVC
  • Аудио кодек: AC3
  • Видео: 1688 Кбит/сек, 1280*720 (16:9), в 23,976 (24000/1001) кадра/сек, AVC
  • Аудио №1: русский 384 Кбит/сек, 48,0 КГц, 16 бит, 6 каналов, AC-3 |[BaibaKo]|
  • Аудио №2: английский 384 Кбит/сек, 48,0 КГц, 16 бит, 6 каналов, AC-3
  • Релиз от: GEKADOL

    Внимание! Раздача ведётся путём добавления новых серий; при каждом добавлении создаётся новый торрент. Чтобы начать докачку новой серии, пользователям необходимо сделать следующее:
    (1) остановить скачивание,
    (2) удалить старый торрент у себя из клиента (старые серии удалять не надо),
    (3) скачать новый торрент и запустить его у себя в клиенте вместо старого, при этом указать клиенту путь в старую папку куда и должно происходить скачивание новых серий.
    Ваш клиент при этом должен произвести хеширование (проверку) старой папки (если не производит сам - помогите ему сделать это), и будет докачивать только те серии которых у вас ещё нет. Старые серии при этом не удаляются, а продолжают раздаваться!
    Eсли вы уже удалили старые серии, то предотвратить повторную закачку старых серий можно, отжав галочку в соответсnвующих местах при запуске нового торрента. По возможности, желательно не удалять старые серии как можно дольше чтобы релизёр не столько продолжал раздавать старые серии, а смог сконцентрироваться на новых.
    Общее
    Уникальный идентификатор : 204870037048881509704393569996221041952 (0x9A2088AE108F4806BB76FF155321CD20)
    Полное имя : F:\Очень странные дела (Stranger Things 2)\Stranger.Things.s02e03.HD720p.WEBRip.Rus.Eng.BaibaKo.tv.mkv
    Формат : Matroska
    Версия формата : Version 4 / Version 2
    Размер файла : 840 Мбайт
    Продолжительность : 47 м. 46 с.
    Режим общего битрейта : Переменный
    Общий поток : 2458 Кбит/сек
    Дата кодирования : UTC 2017-10-28 08:07:02
    Программа кодирования : mkvmerge v14.0.0 ('Flow') 64bit
    Библиотека кодирования : libebml v1.3.4 + libmatroska v1.4.5

    Видео
    Идентификатор : 1
    Формат : AVC
    Формат/Информация : Advanced Video Codec
    Профиль формата : Main@L3.1
    Параметр CABAC формата : Да
    Параметр RefFrames формата : 3 кадра
    Идентификатор кодека : V_MPEG4/ISO/AVC
    Продолжительность : 47 м. 46 с.
    Вид битрейта : Переменный
    Битрейт : 1688 Кбит/сек
    Максимальный битрейт : 2535 Кбит/сек
    Ширина : 1280 пикселей
    Высота : 720 пикселей
    Соотношение сторон : 16:9
    Режим частоты кадров : Постоянный
    Частота кадров : 23,976 (24000/1001) кадра/сек
    Цветовое пространство : YUV
    Субдискретизация насыщенности : 4:2:0
    Битовая глубина : 8 бит
    Тип развёртки : Прогрессивная
    Бит/(Пиксели*Кадры) : 0.076
    Размер потока : 577 Мбайт (69%)
    Default : Нет
    Forced : Нет

    Аудио #1
    Идентификатор : 2
    Формат : AC-3
    Формат/Информация : Audio Coding 3
    Параметр Endianness формата : Big
    Идентификатор кодека : A_AC3
    Продолжительность : 47 м. 46 с.
    Вид битрейта : Постоянный
    Битрейт : 384 Кбит/сек
    Каналы : 6 каналов
    Расположение каналов : Front: L C R, Side: L R, LFE
    Частота : 48,0 КГц
    Частота кадров : 31,250 кадров/сек (1536 SPF)
    Битовая глубина : 16 бит
    Метод сжатия : С потерями
    Задержка видео : 18 мс.
    Размер потока : 131 Мбайт (16%)
    Язык : Russian
    ServiceKind/String : Complete Main
    Default : Да
    Forced : Нет

    Аудио #2
    Идентификатор : 3
    Формат : AC-3
    Формат/Информация : Audio Coding 3
    Параметр Endianness формата : Big
    Идентификатор кодека : A_AC3
    Продолжительность : 47 м. 46 с.
    Вид битрейта : Постоянный
    Битрейт : 384 Кбит/сек
    Каналы : 6 каналов
    Расположение каналов : Front: L C R, Side: L R, LFE
    Частота : 48,0 КГц
    Частота кадров : 31,250 кадров/сек (1536 SPF)
    Битовая глубина : 16 бит
    Метод сжатия : С потерями
    Задержка видео : 28 мс.
    Размер потока : 131 Мбайт (16%)
    Язык : English
    ServiceKind/String : Complete Main
    Default : Нет
    Forced : Нет





    Скриншоты:
    скриншот   скриншот   скриншот   скриншот   скриншот   скриншот   скриншот  
    скриншот  

    Раздача ведётся путём добавления новых серий. Добавлена 4-9 серия (29.10.2017).Просьба перекачать торрент файл.

    pb.wtf



  • Скачать Очень странные дела через торрент http://pic1.kartinco.top/images/11/n6vqv.jpg Скачать фильм Очень странные дела через торрент бесплантно в хорошем качестве qw.png Главное действие нового телевизионного сериала разворачивается в 80-х годах на территории тихого провинциального города. ... 10 10 9
    Info! Золотая раздача, скачанное не засчитывается.
    Торрент: Зарегистрирован [2017-10-29 10:05] · скачан: 300 раз
    Статус: √ проверено
    Размер: 7.83 GB
    Как cкачать? Как скачать Очень странные дела через торрент | qTorrent

    % Раздел Тема Автор DL S | L
    Зарубежные сериалы [ 21.98 GB ] Очень странные дела / Stranger Things / Сезон: 2 / Серии: 1-9 из 9 [2017 BDRip-HEVC 1080p] DUB + 2xMVO RealOldGamer Скачать
    2 | 1
    Зарубежные сериалы [ 156.64 GB ] Очень странные дела / Stranger Things / 2 сезон / 1-9 серии из 9 [2017 UHD BDRemux 2160p] DUB + 2xMVO [LostFilm NewStudio] sheker187 Скачать
    2 | 0
    Ultra HD (UHD: 2K, 4K, 8K) — видео сверхвысокой чёткости [ 130.37 GB ] Очень странные дела / Stranger Things / Сезон 2 / Серии 1-9 из 9 [2017 UHD WEBRip 2160p] MVO [Good People LostFilm] bober100 Скачать
    1 | 0
    Зарубежные сериалы [ 50.74 GB ] Очень странные дела / Stranger Things / Сезон: 2 / Серии 1-9 из 9 [2017 WEBRip 1080p] [MVO] killermax2013 Скачать
    1 | 0
    Зарубежные сериалы [ 5.85 GB ] Очень странные дела / Stranger Things / Сезон: 2 / Серии 1-9 из 9 [2017 WEBRip] [MVO] killermax2013 Скачать
    1 | 0
    Зарубежные сериалы [ 4.45 GB ] Очень странные дела / Stranger Things / Сезон: 2 / Серии 1-9 из 9 [2017 WEBRip] [MVO] killermax2013 Скачать
    1 | 0
    Зарубежные сериалы [ 20.06 GB ] Очень странные дела / Stranger Things / Сезон: 2 / Серии 1-9 из 9 [2017 WEB-DLRip 1080p] [MVO] killermax2013 Скачать
    2 | 0

    28-11-2019 20:33  

    Отключить всю рекламу на сайте

      Дорогой пользователь! Огромная просьба, поблагодарите релизера, оцените раздачу и оставьте свои комментарий, если Вы скачали Очень странные дела через торрент бесплатно! Внесите свою лепту в развитие PiratBit!
      Комментировать посты могут только пользователи прошедшие не сложную регистрацию
      Показать сообщения:    

      Очень странные дела через торрент
      Скачать бесплатно Очень странные дела
      Очень странные дела скачать торрент
      Очень странные дела смотреть онлайн
      Cкачать фильм Очень странные дела бесплатно
      Очень странные дела скачать торрент в хорошем качестве
      Очень странные дела смотреть онлайн бесплатно в хорошем качестве


      Вы не можете начинать темы
      Вы не можете отвечать на сообщения
      Вы не можете редактировать свои сообщения
      Вы не можете удалять свои сообщения
      Вы не можете голосовать в опросах
      Вы не можете прикреплять файлы к сообщениям
      Вы можете скачивать файлы