Ссылка на приватное зеркало нашего сайта всего за 1$. Внимание количество ограничено!!!

2 сезон

iTunes

1 сезон

1

iTunes

iTunes

iTunes

1 сезон

RePack

30

ИГРА 18+

pack

ВАЖНО

!!Акция!!

Alien_RageХит недели

RePack

MK11
pack

Забери бонус

RePack

jed

!!Акция!!

Alien_Rage

RePack

fifa19

RePack

Assassins Creed: Odyssey

RePack

NEED FOR SPEED™ PAYBACK

4 сезон

9 сезон

Бесстыжие 9 сезон

Все сериалы

все сериалы на PB.wtf

RePack

FAR CRY 5
  

Все к лучшему 2 / 1-4 серии из 4 (Руслан Ибрагимов) [2017, Мелодрама, SATRip] pb.wtf

Все к лучшему 2 через торрент pb.wtf

Размер: 2.37 GB | Добавлен: 2 года 11 мес. назад | Торрент скачан:25 раз
Скачать  

28-10-2017 17:43 Все к лучшему 2 Скачать торрент  

Все к лучшему 2
Год выпуска: 2017
Страна: Россия
Жанр: Мелодрама
Продолжительность: 4 х ~ 00:45:00
Субтитры: отсутствуют

Режиссер: Руслан Ибрагимов



В ролях:

Ольга Филиппова, Константин Соловьёв, Анастасия Чистякова (II), Вероника Норина, Алексей Романович, Алексей Лонгин, Анна Дулова

Описание:

Анна и Николай живут вместе, но семейное счастье не клеится. У Николая проблемы с работой, и он боится сказать об этом жене, предпочитая делиться бедами с новой знакомой – роскошной бизнес-леди Ириной. Анна чувствует себя постаревшей и никому не нужной. Взрослые дети застряли в запоздавшем подростковом кризисе. А может, так действует на них первая любовь... И вот в один прекрасный день Аня узнаёт, что ждёт ребёнка. Беременность непростая, врачи пугают осложнениями. Николай просит Анну прервать беременность, и она тут же указывает ему на дверь. А новая беда уже на пороге: около клуба Николая ранен его подопечный Виталий. Подозрение падает на сына Анны Костю, который накануне поссорился с боксёром.

Качество: SATRip
Формат: AVI
Видео кодек: XviD
Аудио кодек: MP3

Видео: 720x400 (1.80:1), 25 fps, XviD build 50 ~1700 kbps avg, 0.23 bit/pixel
Аудио#1: 48 kHz, MPEG Layer 3, 2 ch, ~128.00 kbps avg
скриншот   скриншот   скриншот   скриншот  

Общее
Полное имя : D:\торреннты\Vsjo.k.luchshemu.2\1.Vsjo.k.luchshemu.2.avi
Формат : AVI
Формат/Информация : Audio Video Interleave
Размер файла : 565 Мбайт
Продолжительность : 44 м. 58 с.
Общий поток : 1758 Кбит/сек
Программа кодирования : VirtualDubMod 1.5.10.3 | www.virtualdub-fr.org || (build 2550/release)
Библиотека кодирования : VirtualDubMod build 2550/release

Видео
Идентификатор : 0
Формат : MPEG-4 Visual
Профиль формата : Advanced Simple@L5
Параметр BVOP формата : 2
Параметр QPel формата : Нет
Параметр GMC формата : Без точки перехода
Параметр матрицы формата : Default (MPEG)
Идентификатор кодека : XVID
Идентификатор кодека/Подсказка : XviD
Продолжительность : 44 м. 58 с.
Битрейт : 1620 Кбит/сек
Ширина : 720 пикселей
Высота : 400 пикселей
Соотношение сторон : 16:9
Частота кадров : 25,000 кадров/сек
Цветовое пространство : YUV
Субдискретизация насыщенности : 4:2:0
Битовая глубина : 8 бит
Тип развёртки : Прогрессивная
Метод сжатия : С потерями
Бит/(Пиксели*Кадры) : 0.225
Размер потока : 521 Мбайт (92%)
Библиотека кодирования : XviD 1.2.1 (UTC 2008-12-04)

Аудио
Идентификатор : 1
Формат : MPEG Audio
Версия формата : Version 1
Профиль формата : Layer 3
Идентификатор кодека : 55
Идентификатор кодека/Подсказка : MP3
Продолжительность : 44 м. 58 с.
Вид битрейта : Постоянный
Битрейт : 128 Кбит/сек
Каналы : 2 канала
Частота : 48,0 КГц
Метод сжатия : С потерями
Размер потока : 41,2 Мбайт (7%)
Выравнивание : Соединение по промежуткам
Продолжительность промежутка : 40 мс. (1,00 видеокадр)
Время предзагрузки промежутка : 504 мс.
Библиотека кодирования : LAME3.99r
Настройки программы : -m s -V 4 -q 9 -lowpass 17 -b 128

pb.wtf



Скачать Все к лучшему 2 через торрент http://s018.radikal.ru/i523/1710/44/0e460ba7b5b1.jpg Скачать фильм Все к лучшему 2 через торрент бесплантно в хорошем качестве Описание: Анна и Николай живут вместе, но семейное счастье не клеится. У Николая проблемы с работой, и он боится сказать об этом жене, ... 10 10 2
Торрент: Зарегистрирован [2017-10-28 17:43] · скачан: 25 раз
Статус: √ проверено
Размер: 2.37 GB
Как cкачать? Как скачать Все к лучшему 2 через торрент | qTorrent

% Раздел Тема Автор DL S | L
Наши сериалы [ 2.25 GB ] Всё к лучшему / Сезон:2 / Серии: 1-4 из 4 [2017 SATRip-AVC] aleksan55 Скачать
1 | 0

28-11-2019 20:33  

Отключить всю рекламу на сайте

    Дорогой пользователь! Огромная просьба, поблагодарите релизера, оцените раздачу и оставьте свои комментарий, если Вы скачали Все к лучшему 2 через торрент бесплатно! Внесите свою лепту в развитие PiratBit!
    Комментировать посты могут только пользователи прошедшие не сложную регистрацию
    Показать сообщения:    

    Все к лучшему 2 через торрент
    Скачать бесплатно Все к лучшему 2
    Все к лучшему 2 скачать торрент
    Все к лучшему 2 смотреть онлайн
    Cкачать фильм Все к лучшему 2 бесплатно
    Все к лучшему 2 скачать торрент в хорошем качестве
    Все к лучшему 2 смотреть онлайн бесплатно в хорошем качестве


    Вы не можете начинать темы
    Вы не можете отвечать на сообщения
    Вы не можете редактировать свои сообщения
    Вы не можете удалять свои сообщения
    Вы не можете голосовать в опросах
    Вы не можете прикреплять файлы к сообщениям
    Вы можете скачивать файлы