Ссылка на приватное зеркало нашего сайта всего за 1$. Внимание количество ограничено!!!

2 сезон

iTunes

1 сезон

1

iTunes

iTunes

iTunes

1 сезон

RePack

30

ИГРА 18+

pack

ВАЖНО

!!Акция!!

Alien_RageХит недели

RePack

MK11
pack

Забери бонус

RePack

jed

!!Акция!!

Alien_Rage

RePack

fifa19

RePack

Assassins Creed: Odyssey

RePack

NEED FOR SPEED™ PAYBACK

4 сезон

9 сезон

Бесстыжие 9 сезон

Все сериалы

все сериалы на PB.wtf

RePack

FAR CRY 5
  

Гадкий Я 3 / Despicable Me 3 (Эрик Гуильон, Кайл Балда, Пьер Коффан) [2017 г., Мультфильм, фантастика, боевик, комедия, приключения, семейный, HDRip] DUB [Лицензия] pb.wtf

Гадкий Я 3 через торрент pb.wtf

Размер: 1.46 GB | Добавлен: 3 года назад | Торрент скачан:384 раза
Скачать  

28-10-2017 18:42 Гадкий Я 3 Скачать торрент  

Гадкий Я 3 / Despicable Me 3
Год выпуска: 2017
Страна: США / Illumination Entertainment, Universal Pictures
Жанр: Мультфильм, фантастика, боевик, комедия, приключения, семейный
Продолжительность: 01:29:40
Перевод: Дубляж (BD EUR)
Субтитры: Русские форсированные вшитые

Режиссер: Эрик Гуильон, Кайл Балда, Пьер Коффан

rating

В ролях: Стив Карелл, Кристен Уиг, Трей Паркер, Миранда Косгров, Дэна Гайер, Пьер Коффан, Стив Кугэн, Джули Эндрюс, Дженни Слейт

Описание: Грядет третье пришествие. Многодетный суперагент, роковая красотка и бессмертные миньоны на подходе. Готовьтесь. Они будут править миром.

Качество: HDRip
Формат: AVI
Видео кодек: XviD
Аудио кодек: AC3
Видео: 720x304 (2.37:1), 23.976 fps, XviD build 50 ~1878 kbps avg, 0.36 bit/pixel
Аудио: 48 kHz, AC3 Dolby Digital, 3/2 (L,C,R,l,r) + LFE ch, ~448 kbps
скриншот   скриншот   скриншот   скриншот  

Общее
Полное имя : F:\ФИЛЬМЫ\Гадкий Я 3.2017.D.HDRip.avi
Формат : AVI
Формат/Информация : Audio Video Interleave
Размер файла : 1,46 Гбайт
Продолжительность : 1 ч. 29 м.
Общий поток : 2335 Кбит/сек
Программа кодирования : VirtualDubMod 1.5.10.3 | www.virtualdub-fr.org || (build 2550/release)
Библиотека кодирования : VirtualDubMod build 2550/release

Видео
Идентификатор : 0
Формат : MPEG-4 Visual
Профиль формата : Advanced Simple@L5
Настройки формата : BVOP1
Параметр BVOP формата : 1
Параметр QPel формата : Нет
Параметр GMC формата : Без точки перехода
Параметр матрицы формата : Default (MPEG)
Идентификатор кодека : XVID
Идентификатор кодека/Подсказка : XviD
Продолжительность : 1 ч. 29 м.
Битрейт : 1878 Кбит/сек
Ширина : 720 пикселей
Высота : 304 пикселя
Соотношение сторон : 2,35:1
Частота кадров : 23,976 (24000/1001) кадра/сек
Цветовое пространство : YUV
Субдискретизация насыщенности : 4:2:0
Битовая глубина : 8 бит
Тип развёртки : Прогрессивная
Метод сжатия : С потерями
Бит/(Пиксели*Кадры) : 0.358
Размер потока : 1,18 Гбайт (80%)
Библиотека кодирования : XviD 1.2.1 (UTC 2008-12-04)

Аудио
Идентификатор : 1
Формат : AC-3
Формат/Информация : Audio Coding 3
Параметр Endianness формата : Big
Идентификатор кодека : 2000
Продолжительность : 1 ч. 29 м.
Вид битрейта : Постоянный
Битрейт : 448 Кбит/сек
Каналы : 6 каналов
Расположение каналов : Front: L C R, Side: L R, LFE
Частота : 48,0 КГц
Частота кадров : 31,250 кадров/сек (1536 SPF)
Битовая глубина : 16 бит
Метод сжатия : С потерями
Размер потока : 287 Мбайт (19%)
Выравнивание : Разделение по промежуткам
Продолжительность промежутка : 42 мс. (1,00 видеокадр)
Время предзагрузки промежутка : 500 мс.
ServiceKind/String : Complete Main

pb.wtf



Скачать Гадкий Я 3 через торрент http://pic1.kartinco.top/images/11/smw8l.jpg Скачать фильм Гадкий Я 3 через торрент бесплантно в хорошем качестве Описание: Грядет третье пришествие. Многодетный суперагент, роковая красотка и бессмертные миньоны на подходе. Готовьтесь. Они будут ... 10 10 3
Торрент: Зарегистрирован [2017-10-28 18:42] · скачан: 384 раз
Статус: √ проверено
Размер: 1.46 GB
Как cкачать? Как скачать Гадкий Я 3 через торрент | qTorrent

% Раздел Тема Автор DL S | L
Ultra HD (UHD: 2K, 4K, 8K) [ 14.17 GB ] Гадкий Я 3 / Despicable Me 3 [2017 Мультфильм UHD WEBRip 2160p ] DUB [] bober100 Скачать
1 | 0
Зарубежные Мультфильмы (BDRip 1080p, 720p, Blu-ray, BD-Remux) [ 3.38 GB ] Гадкий Я 3 / Despicable Me 3 [2017 мультфильм BDRip 1080p HEVC ] Мичман37 Скачать
6 | 0
Зарубежные Мультфильмы (BDRip 1080p, 720p, Blu-ray, BD-Remux) [ 36.04 GB ] Гадкий Я 3 / Despicable Me 3 [2017 Мультфильм Blu-ray EUR 1080p] [2D 3D] DUB [] bober100 Скачать
1 | 0
Иностранные мультфильмы [ 2.1 GB ] Гадкий я 3 / Despicable Me 3 [2017 мультфильм BDRip-AVC] sokol_ok Скачать
2 | 0
3D Мультфильмы [ 11.26 GB ] Гадкий я 3 в 3Д / Despicable Me 3 3D [2017 Мультфильм Приключен BDrip 1080p] OverUnder / Вертикальная стереопара serega768 Скачать
1 | 0
Иностранные мультфильмы [ 762 MB ] Гадкий я 3 / Despicable Me 3 [2017 мультфильм BDRip-AVC] sokol_ok Скачать
2 | 0
Иностранные мультфильмы [ 1.44 GB ] Гадкий я 3 / Despicable Me 3 [2017 мультфильм BDRip-AVC] sokol_ok Скачать
2 | 0

28-11-2019 20:33  

Отключить всю рекламу на сайте

    Дорогой пользователь! Огромная просьба, поблагодарите релизера, оцените раздачу и оставьте свои комментарий, если Вы скачали Гадкий Я 3 через торрент бесплатно! Внесите свою лепту в развитие PiratBit!
    Комментировать посты могут только пользователи прошедшие не сложную регистрацию
    Показать сообщения:    

    Гадкий Я 3 через торрент
    Скачать бесплатно Гадкий Я 3
    Гадкий Я 3 скачать торрент
    Гадкий Я 3 смотреть онлайн
    Cкачать фильм Гадкий Я 3 бесплатно
    Гадкий Я 3 скачать торрент в хорошем качестве
    Гадкий Я 3 смотреть онлайн бесплатно в хорошем качестве


    Вы не можете начинать темы
    Вы не можете отвечать на сообщения
    Вы не можете редактировать свои сообщения
    Вы не можете удалять свои сообщения
    Вы не можете голосовать в опросах
    Вы не можете прикреплять файлы к сообщениям
    Вы можете скачивать файлы