Ссылка на приватное зеркало нашего сайта всего за 1$. Внимание количество ограничено!!!

2 сезон

iTunes

1 сезон

1

2 сезон

2 сезон

iTunes

1 сезон

RePack

30

Новинка

ВАЖНО

ИГРА 18+

pack

RePack

MK11
pack

Забери бонус

RePack

jed

!!Акция!!

Alien_Rage

RePack

fifa19

RePack

Assassins Creed: Odyssey

RePack

NEED FOR SPEED™ PAYBACK

4 сезон

9 сезон

Бесстыжие 9 сезон

Все сериалы

все сериалы на PB.wtf

RePack

FAR CRY 5
  

Охотник за разумом / Mindhunter / Сезон: 1 / Серии 1-10 из 10 (Дэвид Финчер) [2017, триллер, драма, криминал, WEBRip 720p] [DVO] (Кубик в Кубе) pb.wtf

Охотник за разумом через торрент pb.wtf

Качают: 1 [ 0 KB/s ]
Размер: 11.16 GB | Добавлен: 1 год 4 мес. назад | Торрент скачан:110 раз
Скачать  

28-10-2017 21:31 Охотник за разумом Скачать торрент  

Охотник за разумом / Mindhunter
Год выпуска • 2017
Страна • США
Жанр • драма, криминал, триллер
Продолжительность 1x• ~ 01:00:00
ПереводПрофессиональный (двухголосый, закадровый) [Кубик в Кубе]
Субтитры: English

Режиссер • Дэвид Финчер, Эндрю Дуглас, Азиф Кападиа

В ролях • Джонатан Грофф, Холт МакКэллани, Анна Торв, Коттер Смит, Сонни Валиченти, Ханна Гросс, Камерон Бриттон, Алекс Морф, Стэйси Рока, Джо Таттл и др.

Описание • Действие сериала происходит в 1979 году. В центре сюжета два агента ФБР, которые опрашивают находящихся в заключении серийных убийц с целью понимания их образа мыслей, а также раскрытия текущих преступлений.




Работа со звуком: messafan

Качество: WEBRip 720p
Формат: MKV
Видео: 1280x582 at 23.976 fps, MPEG-4 AVC, ~3100kbps avg
Аудио 1: 48 kHz, AC3, 3/2 (L,C,R,l,r) + LFE ch, ~384.00 kbps avg |Кубик в Кубе|
Аудио 2: 48 kHz, AC3, 3/2 (L,C,R,l,r) + LFE ch, ~384.00 kbps avg English
General
Unique ID : 241261470238884913518048320426364526639 (0xB58144DCEBECE0FE859451E2C9D2602F)
Complete name : E:\Mindhunter.S01.720p.WEBRip.KvK.CasStudio.TV\Mindhunter.S01E01.720p.WEBRip.KvK.CasStudio.TV.mkv
Format : Matroska
Format version : Version 4 / Version 2
File size : 1.60 GiB
Duration : 1 h 0 min
Overall bit rate : 3 814 kb/s
Movie name : Mindhunter 01x01 - release by messafan for CasStudio.TV
Encoded date : UTC 2017-10-22 15:43:05
Writing application : mkvmerge v6.7.0 ('Back to the Ground') 64bit built on Jan 8 2014 15:10:52
Writing library : libebml v1.3.0 + libmatroska v1.4.1

Video
ID : 1
Format : AVC
Format/Info : Advanced Video Codec
Format profile : High@L4.1
Format settings : CABAC / 11 Ref Frames
Format settings, CABAC : Yes
Format settings, RefFrames : 11 frames
Codec ID : V_MPEG4/ISO/AVC
Duration : 1 h 0 min
Bit rate : 2 970 kb/s
Width : 1 280 pixels
Height : 582 pixels
Display aspect ratio : 2.2:1
Frame rate mode : Constant
Frame rate : 23.976 (24000/1001) FPS
Color space : YUV
Chroma subsampling : 4:2:0
Bit depth : 8 bits
Scan type : Progressive
Bits/(Pixel*Frame) : 0.166
Stream size : 1.25 GiB (78%)
Writing library : x264 core 148 r2744 b97ae06
Encoding settings : cabac=1 / ref=11 / deblock=1:-3:-3 / analyse=0x3:0x133 / me=umh / subme=10 / psy=1 / psy_rd=1.00:0.00 / mixed_ref=1 / me_range=48 / chroma_me=1 / trellis=2 / 8x8dct=1 / cqm=0 / deadzone=21,11 / fast_pskip=0 / chroma_qp_offset=-2 / threads=12 / lookahead_threads=2 / sliced_threads=0 / nr=0 / decimate=0 / interlaced=0 / bluray_compat=0 / constrained_intra=0 / bframes=9 / b_pyramid=0 / b_adapt=2 / b_bias=0 / direct=3 / weightb=1 / open_gop=0 / weightp=2 / keyint=240 / keyint_min=23 / scenecut=40 / intra_refresh=0 / rc_lookahead=60 / rc=crf / mbtree=0 / crf=17.0 / qcomp=0.60 / qpmin=10 / qpmax=51 / qpstep=4 / vbv_maxrate=62500 / vbv_bufsize=78125 / crf_max=0.0 / nal_hrd=none / filler=0 / ip_ratio=1.40 / pb_ratio=1.30 / aq=3:0.70
Default : Yes
Forced : No

Audio #1
ID : 2
Format : AC-3
Format/Info : Audio Coding 3
Format settings, Endianness : Big
Codec ID : A_AC3
Duration : 1 h 0 min
Bit rate mode : Constant
Bit rate : 384 kb/s
Channel(s) : 6 channels
Channel positions : Front: L C R, Side: L R, LFE
Sampling rate : 48.0 kHz
Frame rate : 31.250 FPS (1536 SPF)
Bit depth : 16 bits
Compression mode : Lossy
Stream size : 165 MiB (10%)
Title : KvK 5.1
Language : Russian
Service kind : Complete Main
Default : Yes
Forced : No

Audio #2
ID : 3
Format : AC-3
Format/Info : Audio Coding 3
Format settings, Endianness : Big
Codec ID : A_AC3
Duration : 1 h 0 min
Bit rate mode : Constant
Bit rate : 384 kb/s
Channel(s) : 6 channels
Channel positions : Front: L C R, Side: L R, LFE
Sampling rate : 48.0 kHz
Frame rate : 31.250 FPS (1536 SPF)
Bit depth : 16 bits
Compression mode : Lossy
Stream size : 165 MiB (10%)
Title : English 5.1
Language : English
Service kind : Complete Main
Default : No
Forced : No

Text
ID : 4
Format : UTF-8
Codec ID : S_TEXT/UTF8
Codec ID/Info : UTF-8 Plain Text
Title : SDH
Language : English
Default : No
Forced : No
скриншот   скриншот   скриншот   скриншот   скриншот  
pb.wtf



Скачать Охотник за разумом через торрент http://i95.fastpic.ru/big/2017/1029/d1/ad88145414452095d3a5e047b369a3d1.png Скачать фильм Охотник за разумом через торрент бесплантно в хорошем качестве Описание • Действие сериала происходит в 1979 году. В центре сюжета два агента ФБР, которые опрашивают находящихся в заключении серийных ... 9 10 11
Торрент: Зарегистрирован [2019-07-28 16:15] · скачан: 110 раз
Статус: √ проверено
Размер: 11.16 GB
Как cкачать? Как скачать Охотник за разумом через торрент | qTorrent

% Раздел Тема Автор DL S | L
Зарубежные сериалы [ 52.16 GB ] Охотник за разумом / Mindhunter / Сезон: 1-2 / Серии: 1-19 из 19 [2017-2019 WEBRip 1080p] [DVO] killermax2013 Скачать
1 | 0
Зарубежные сериалы [ 14.05 GB ] Охотник за разумом / Mindhunter / Сезон: 2 / Серии: 1-9 из 9 [2019 WEB-DL 1080p] MVO [Jaskier] bober100 Скачать
1 | 0
Фильмы без перевода [ 13.25 GB ] Охотник за разумом / Mindhunter / Сезон: 2 / Серии: 1- 9 из 9 [2019 WEB-DL 1080p] 2x[Sub] killermax2013 Скачать
1 | 0
Зарубежные сериалы [ 14.66 GB ] Охотник за разумом / Mindhunter / Сезон: 2 / Серии: 1-9 из 9 [2019 WEB-DL 1080p] MVO [Lostfilm] bober100 Скачать
1 | 0
Зарубежные сериалы [ 14.68 GB ] Охотник за разумом / Mindhunter / Сезон: 2 / Серии: 1-9 из 9 [2019 WEB-DL 1080p] [MVO] killermax2013 Скачать
1 | 0
Зарубежные сериалы [ 22.1 GB ] Охотник за разумом / Mindhunter / Сезон: 2 / Серии: 1-9 из 9 [2019 WEBRip 1080p] MVO [Profix Media] bober100 Скачать
1 | 0
Зарубежные сериалы [ 14.65 GB ] Охотник за разумом / Mindhunter / Сезон: 2 / Серии: 1-9 из 9 [2019 WEBRip 1080p] DVO [Gears Media] bober100 Скачать
1 | 0


Последний раз редактировалось: killermax2013 (2019-05-26 20:40), всего редактировалось 5 раз(а)

28-11-2019 20:33  

Отключить всю рекламу на сайте

    Дорогой пользователь! Огромная просьба, поблагодарите релизера, оцените раздачу и оставьте свои комментарий, если Вы скачали Охотник за разумом через торрент бесплатно! Внесите свою лепту в развитие PiratBit!
    Комментировать посты могут только пользователи прошедшие не сложную регистрацию
    Показать сообщения:    

    Охотник за разумом через торрент
    Скачать бесплатно Охотник за разумом
    Охотник за разумом скачать торрент
    Охотник за разумом смотреть онлайн
    Cкачать фильм Охотник за разумом бесплатно
    Охотник за разумом скачать торрент в хорошем качестве
    Охотник за разумом смотреть онлайн бесплатно в хорошем качестве


    Вы не можете начинать темы
    Вы не можете отвечать на сообщения
    Вы не можете редактировать свои сообщения
    Вы не можете удалять свои сообщения
    Вы не можете голосовать в опросах
    Вы не можете прикреплять файлы к сообщениям
    Вы можете скачивать файлы