Ссылка на приватное зеркало нашего сайта всего за 1$. Внимание количество ограничено!!!

2 сезон

iTunes

1 сезон

1

2 сезон

2 сезон

iTunes

1 сезон

RePack

30

Ultimate

ВАЖНО

ИГРА 18+

pack

RePack

MK11
pack

Забери бонус

RePack

jed

!!Акция!!

Alien_Rage

RePack

fifa19

RePack

Assassins Creed: Odyssey

RePack

NEED FOR SPEED™ PAYBACK

4 сезон

9 сезон

Бесстыжие 9 сезон

Все сериалы

все сериалы на PB.wtf

RePack

FAR CRY 5
  

Похищение / Kidnap (Луис Прието) [2017, Триллер, драма, BD Remux 1080p] [US Transfer] DUB [Лицензия] pb.wtf

Похищение через торрент pb.wtf

Размер: 21.32 GB | Добавлен: 3 года 1 мес. назад | Торрент скачан:57 раз
Скачать  

29-10-2017 05:03 Похищение Скачать торрент  

Похищение / Kidnap
Год выпуска: 2017
Страна: США
Жанр: Триллер, драма
Продолжительность: 01:34:56
Перевод: Дублированный | Лицензия
Субтитры: Английские

Режиссер: Луис Прието

rating

В ролях:

Холли Берри, Дэна Гурье, Лью Темпл, Кристофер Берри, Роберт Уокер Браншод, Курт Краузе, Ричи Монтгомери, Малия Ричардсон, Джастин Лебрун, Диди Костин

Описание:

Знаете ли вы, что в США каждые 40 секунд пропадает один ребенок? ​Когда Карла видит, как кто-то увозит ее сына, а полицейские бездействуют, она бросается в погоню за похитителями. Без раздумий, без страха, без… телефона. В этой гонке со временем для спасения собственного ребенка ни скорости, ни риски не имеют значения.

Качество: BD Remux 1080p
Формат: MKV
Видео кодек: H.264
Аудио кодек: DTS/DTS-HD MA

Видео: MPEG-4 AVC, 1920x1080, 25.3 Mbit/s, 23.976 fps
Аудио#1: 48 kHz, DTS-HD MA, 5.1, 4214 Kbps | Дублированный | RUS |
Аудио#2: 48 kHz, AC3, 5.1, 640 Kbps | Дублированный | RUS |
Аудио#3: 48 kHz, DTS-HD MA, 5.1, 1976 Kbps | Оригинал | ENG |

Релиз от:
скриншот   скриншот   скриншот   скриншот   скриншот  

General
Unique ID : 209236680626984889005852780940642588757 (0x9D6984D48EB79445A2E7BB37D4CD9855)
Complete name : G:VideoSSDKidnap.2017.Lic.BDREMUX.1080p.ExKinoRay.mkv
Format : Matroska
Format version : Version 4 / Version 2
File size : 21.3 GiB
Duration : 1 h 34 min
Overall bit rate mode : Variable
Overall bit rate : 32.1 Mb/s
Encoded date : UTC 2017-10-29 03:57:04
Writing application : mkvmerge v17.0.0 ('Be Ur Friend') 64-bit
Writing library : libebml v1.3.5 + libmatroska v1.4.8

Video
ID : 1
Format : AVC
Format/Info : Advanced Video Codec
Format profile : High@L4.1
Format settings : CABAC / 2 Ref Frames
Format settings, CABAC : Yes
Format settings, RefFrames : 2 frames
Format settings, GOP : M=1, N=5
Codec ID : V_MPEG4/ISO/AVC
Duration : 1 h 34 min
Bit rate mode : Variable
Bit rate : 25.3 Mb/s
Maximum bit rate : 35.2 Mb/s
Width : 1 920 pixels
Height : 1 080 pixels
Display aspect ratio : 16:9
Frame rate mode : Constant
Frame rate : 23.976 (24000/1001) FPS
Color space : YUV
Chroma subsampling : 4:2:0
Bit depth : 8 bits
Scan type : Progressive
Bits/(Pixel*Frame) : 0.509
Stream size : 16.8 GiB (79%)
Language : English
Default : Yes
Forced : No

Audio #1
ID : 2
Format : DTS
Format/Info : Digital Theater Systems
Format profile : MA / Core
Mode : 16
Format settings, Endianness : Big
Codec ID : A_DTS
Duration : 1 h 34 min
Bit rate mode : Variable / Constant
Bit rate : 4 214 kb/s / 1 509 kb/s
Channel(s) : 6 channels
Channel positions : Front: L C R, Side: L R, LFE
Sampling rate : 48.0 kHz
Frame rate : 93.750 FPS (512 SPF)
Bit depth : 24 bits
Compression mode : Lossless / Lossy
Stream size : 2.79 GiB (13%)
Title : Dub [License BD RUS]
Language : Russian
Default : Yes
Forced : No

Audio #2
ID : 3
Format : AC-3
Format/Info : Audio Coding 3
Format settings, Endianness : Big
Codec ID : A_AC3
Duration : 1 h 34 min
Bit rate mode : Constant
Bit rate : 640 kb/s
Channel(s) : 6 channels
Channel positions : Front: L C R, Side: L R, LFE
Sampling rate : 48.0 kHz
Frame rate : 31.250 FPS (1536 SPF)
Bit depth : 16 bits
Compression mode : Lossy
Stream size : 434 MiB (2%)
Title : Dub [License BD RUS]
Language : Russian
Service kind : Complete Main
Default : No
Forced : No

Audio #3
ID : 4
Format : DTS
Format/Info : Digital Theater Systems
Format profile : MA / Core
Mode : 16
Format settings, Endianness : Big
Codec ID : A_DTS
Duration : 1 h 34 min
Bit rate mode : Variable / Constant
Bit rate : 1 976 kb/s / 1 509 kb/s
Channel(s) : 6 channels
Channel positions : Front: L C R, Side: L R, LFE
Sampling rate : 48.0 kHz
Frame rate : 93.750 FPS (512 SPF)
Bit depth : 16 bits
Compression mode : Lossless / Lossy
Stream size : 1.31 GiB (6%)
Title : Original
Language : English
Default : No
Forced : No

Text
ID : 5
Format : UTF-8
Codec ID : S_TEXT/UTF8
Codec ID/Info : UTF-8 Plain Text
Duration : 1 h 27 min
Bit rate : 29 b/s
Count of elements : 632
Stream size : 18.9 KiB (0%)
Title : Full
Language : English
Default : No
Forced : No

Menu
00:00:00.000 : en:00:00:00.000
00:10:05.980 : en:00:10:05.980
00:18:17.346 : en:00:18:17.346
00:31:20.003 : en:00:31:20.003
00:42:57.950 : en:00:42:57.950
00:56:26.341 : en:00:56:26.341
01:08:57.008 : en:01:08:57.008
01:24:34.069 : en:01:24:34.069

pb.wtf



Скачать Похищение через торрент http://s018.radikal.ru/i518/1710/d7/ad6cadea5088.jpg Скачать фильм Похищение через торрент бесплантно в хорошем качестве Описание: Знаете ли вы, что в США каждые 40 секунд пропадает один ребенок? ​Когда Карла видит, как кто-то увозит ее сына, а полицейские ... 10 10 3
Info! Серебряная раздача, засчитывается только 50% скачанного.
Торрент: Зарегистрирован [2017-10-29 05:03] · скачан: 57 раз
Статус: √ проверено
Размер: 21.32 GB
Как cкачать? Как скачать Похищение через торрент | qTorrent

% Раздел Тема Автор DL S | L
Фильмы 2017 [DVDrip, WEB-DLRip, HDrip] (DUB, MVO) [ 1.46 GB ] Похищение / Kidnap [2017 BDRip] - [] Twi7ter Скачать
2 | 0
Фильмы 2017 [DVDrip, WEB-DLRip, HDrip] (DUB, MVO) [ 1.36 GB ] Похищение / Kidnap [2017 BDRip-AVC] DUB [] [RUS-Transfer] - ExKinoRay Enigma2010 Скачать
1 | 0
Фильмы [HD 720p, 1080p] (Хороший звук DUB, MVO) [ 8.81 GB ] Похищение / Kidnap [2017 BDRip 1080p] DUB [] bober100 Скачать
1 | 0
Фильмы 2017 [DVDrip, WEB-DLRip, HDrip] (DUB, MVO) [ 2.09 GB ] Похищение / Kidnap [2017 BDRip-AVC] DUB [] bober100 Скачать
1 | 0
Фильмы [HD 720p, 1080p] (Хороший звук DUB, MVO) [ 4.58 GB ] Похищение / Kidnap [2017 BDRip 720p] DUB [] bober100 Скачать
1 | 0
Фильмы 2017 [DVDrip, WEB-DLRip, HDrip] (DUB, MVO) [ 1.46 GB ] Похищение / Kidnap [2017 BDRip] DUB [] bober100 Скачать
1 | 0
T Фильмы 2016 [DVDrip, WEB-DLRip, HDrip] (DUB, MVO) [ 1.37 GB ] Похищение в Румынии / Kidnapped in Romania [2016 WEB-DLRip Любительский [@MUZOBOZ@] ] oleg8 Скачать
1 | 0

28-11-2019 20:33  

Отключить всю рекламу на сайте

    Дорогой пользователь! Огромная просьба, поблагодарите релизера, оцените раздачу и оставьте свои комментарий, если Вы скачали Похищение через торрент бесплатно! Внесите свою лепту в развитие PiratBit!
    Комментировать посты могут только пользователи прошедшие не сложную регистрацию
    Показать сообщения:    

    Похищение через торрент
    Скачать бесплатно Похищение
    Похищение скачать торрент
    Похищение смотреть онлайн
    Cкачать фильм Похищение бесплатно
    Похищение скачать торрент в хорошем качестве
    Похищение смотреть онлайн бесплатно в хорошем качестве


    Вы не можете начинать темы
    Вы не можете отвечать на сообщения
    Вы не можете редактировать свои сообщения
    Вы не можете удалять свои сообщения
    Вы не можете голосовать в опросах
    Вы не можете прикреплять файлы к сообщениям
    Вы можете скачивать файлы