Ссылка на приватное зеркало нашего сайта всего за 1$. Внимание количество ограничено!!!

2 сезон

iTunes

1 сезон

1

iTunes

iTunes

iTunes

1 сезон

RePack

30

ИГРА 18+

pack

ВАЖНО

!!Акция!!

Alien_RageХит недели

RePack

MK11
pack

Забери бонус

RePack

jed

!!Акция!!

Alien_Rage

RePack

fifa19

RePack

Assassins Creed: Odyssey

RePack

NEED FOR SPEED™ PAYBACK

4 сезон

9 сезон

Бесстыжие 9 сезон

Все сериалы

все сериалы на PB.wtf

RePack

FAR CRY 5
  

Похищение / Kidnap (Луис Прието) [2017, Триллер, драма, BDRip 720p] DUB [Лицензия] pb.wtf

Похищение через торрент pb.wtf

Размер: 4.58 GB | Добавлен: 2 года 11 мес. назад | Торрент скачан:171 раз
Скачать  

29-10-2017 07:41 Похищение Скачать торрент  

Похищение / KidnapГод выпуска: 2017
Страна: США
Жанр: Триллер, драма
Продолжительность: 01:34:56
Перевод: Дублированный | Лицензия
Субтитры: Английские
Реклама: Отсутствует

Режиссер: Луис Прието

rating

В ролях:

Холли Берри, Дэна Гурье, Лью Темпл, Кристофер Берри, Роберт Уокер Браншод, Курт Краузе, Ричи Монтгомери, Малия Ричардсон, Джастин Лебрун, Диди Костин

Описание:

Знаете ли вы, что в США каждые 40 секунд пропадает один ребенок? ​Когда Карла видит, как кто-то увозит ее сына, а полицейские бездействуют, она бросается в погоню за похитителями. Без раздумий, без страха, без… телефона. В этой гонке со временем для спасения собственного ребенка ни скорости, ни риски не имеют значения.


Качество: BDRip 720p
Формат: MKV
Видео кодек: H.264
Аудио кодек: AC3/DTS

Видео: MPEG-4 AVC, 1280x534, 4120 Kbit/s, 23.976 fps
Аудио#1: 48 kHz, DTS, 5.1, 1510 Kbps | Дублированный | RUS |
Аудио#2: 48 kHz, AC3, 5.1, 640 Kbps | Дублированный | RUS |
Аудио#3: 48 kHz, AC3, 5.1, 640 Kbps | Оригинал | ENG |

Релиз от:
скриншот   скриншот   скриншот   скриншот   скриншот  

General
Unique ID : 204781584352237546436989008842362897853 (0x9A0F7FA0133F5C55A69DBCAC4D52C5BD)
Complete name : G:VideoSSDKidnap.2017.Lic.BDRip.720p.ExKinoRay.mkv
Format : Matroska
Format version : Version 4 / Version 2
File size : 4.58 GiB
Duration : 1 h 34 min
Overall bit rate : 6 909 kb/s
Encoded date : UTC 2017-10-29 03:47:46
Writing application : mkvmerge v17.0.0 ('Be Ur Friend') 64-bit
Writing library : libebml v1.3.5 + libmatroska v1.4.8

Video
ID : 1
Format : AVC
Format/Info : Advanced Video Codec
Format profile : High@L4.1
Format settings : CABAC / 12 Ref Frames
Format settings, CABAC : Yes
Format settings, RefFrames : 12 frames
Codec ID : V_MPEG4/ISO/AVC
Duration : 1 h 34 min
Bit rate : 4 120 kb/s
Width : 1 280 pixels
Height : 534 pixels
Display aspect ratio : 2.40:1
Frame rate mode : Constant
Frame rate : 23.976 (24000/1001) FPS
Color space : YUV
Chroma subsampling : 4:2:0
Bit depth : 8 bits
Scan type : Progressive
Bits/(Pixel*Frame) : 0.251
Stream size : 2.73 GiB (60%)
Writing library : x264 core 148 r2705 3f5ed56
Encoding settings : cabac=1 / ref=12 / deblock=1:-2:-2 / analyse=0x3:0x133 / me=tesa / subme=11 / psy=1 / psy_rd=1.05:0.05 / mixed_ref=1 / me_range=48 / chroma_me=1 / trellis=2 / 8x8dct=1 / cqm=0 / deadzone=21,11 / fast_pskip=0 / chroma_qp_offset=-3 / threads=24 / lookahead_threads=4 / sliced_threads=0 / nr=0 / decimate=0 / interlaced=0 / bluray_compat=0 / constrained_intra=0 / bframes=10 / b_pyramid=2 / b_adapt=2 / b_bias=0 / direct=3 / weightb=1 / open_gop=0 / weightp=2 / keyint=240 / keyint_min=23 / scenecut=40 / intra_refresh=0 / rc_lookahead=50 / rc=2pass / mbtree=0 / bitrate=4120 / ratetol=1.0 / qcomp=0.60 / qpmin=0 / qpmax=69 / qpstep=4 / cplxblur=20.0 / qblur=0.5 / vbv_maxrate=50000 / vbv_bufsize=62500 / nal_hrd=none / filler=0 / ip_ratio=1.40 / pb_ratio=1.30 / aq=3:0.80
Language : English
Default : Yes
Forced : No

Audio #1
ID : 2
Format : DTS
Format/Info : Digital Theater Systems
Mode : 16
Format settings, Endianness : Big
Codec ID : A_DTS
Duration : 1 h 34 min
Bit rate mode : Constant
Bit rate : 1 509 kb/s
Channel(s) : 6 channels
Channel positions : Front: L C R, Side: L R, LFE
Sampling rate : 48.0 kHz
Frame rate : 93.750 FPS (512 SPF)
Bit depth : 24 bits
Compression mode : Lossy
Stream size : 1.00 GiB (22%)
Title : Dub [License BD RUS]
Language : Russian
Default : Yes
Forced : No

Audio #2
ID : 3
Format : AC-3
Format/Info : Audio Coding 3
Format settings, Endianness : Big
Codec ID : A_AC3
Duration : 1 h 34 min
Bit rate mode : Constant
Bit rate : 640 kb/s
Channel(s) : 6 channels
Channel positions : Front: L C R, Side: L R, LFE
Sampling rate : 48.0 kHz
Frame rate : 31.250 FPS (1536 SPF)
Bit depth : 16 bits
Compression mode : Lossy
Stream size : 434 MiB (9%)
Title : Dub [License BD RUS]
Language : Russian
Service kind : Complete Main
Default : No
Forced : No

Audio #3
ID : 4
Format : AC-3
Format/Info : Audio Coding 3
Format settings, Endianness : Big
Codec ID : A_AC3
Duration : 1 h 34 min
Bit rate mode : Constant
Bit rate : 640 kb/s
Channel(s) : 6 channels
Channel positions : Front: L C R, Side: L R, LFE
Sampling rate : 48.0 kHz
Frame rate : 31.250 FPS (1536 SPF)
Bit depth : 16 bits
Compression mode : Lossy
Stream size : 435 MiB (9%)
Title : Original
Language : English
Service kind : Complete Main
Default : No
Forced : No

Text
ID : 5
Format : UTF-8
Codec ID : S_TEXT/UTF8
Codec ID/Info : UTF-8 Plain Text
Duration : 1 h 27 min
Bit rate : 29 b/s
Count of elements : 632
Stream size : 18.9 KiB (0%)
Title : Full
Language : English
Default : No
Forced : No

Menu
00:00:00.000 : en:00:00:00.000
00:10:05.980 : en:00:10:05.980
00:18:17.346 : en:00:18:17.346
00:31:20.003 : en:00:31:20.003
00:42:57.950 : en:00:42:57.950
00:56:26.341 : en:00:56:26.341
01:08:57.008 : en:01:08:57.008
01:24:34.069 : en:01:24:34.069

pb.wtf



Скачать Похищение через торрент http://s018.radikal.ru/i518/1710/d7/ad6cadea5088.jpg Скачать фильм Похищение через торрент бесплантно в хорошем качестве Описание: Знаете ли вы, что в США каждые 40 секунд пропадает один ребенок? ​Когда Карла видит, как кто-то увозит ее сына, а полицейские ... 9.4 10 10
Торрент: Зарегистрирован [2017-10-29 07:41] · скачан: 171 раз
Статус: √ проверено
Размер: 4.58 GB
Как cкачать? Как скачать Похищение через торрент | qTorrent

% Раздел Тема Автор DL S | L
Фильмы 2017 [DVDrip, WEB-DLRip, HDrip] (DUB, MVO) [ 1.46 GB ] Похищение / Kidnap [2017 BDRip] - [] Twi7ter Скачать
1 | 0
Фильмы 2017 [DVDrip, WEB-DLRip, HDrip] (DUB, MVO) [ 1.36 GB ] Похищение / Kidnap [2017 BDRip-AVC] DUB [] [RUS-Transfer] - ExKinoRay Enigma2010 Скачать
1 | 0
Фильмы [HD 720p, 1080p] (Хороший звук DUB, MVO) [ 8.81 GB ] Похищение / Kidnap [2017 BDRip 1080p] DUB [] bober100 Скачать
1 | 0
Фильмы 2017 [DVDrip, WEB-DLRip, HDrip] (DUB, MVO) [ 2.09 GB ] Похищение / Kidnap [2017 BDRip-AVC] DUB [] bober100 Скачать
1 | 0
Фильмы (Blu-ray, BD-Remux, HDDVD) [ 21.32 GB ] Похищение / Kidnap [2017 BD Remux 1080p] [US Transfer] DUB [] bober100 Скачать
1 | 0
Фильмы 2017 [DVDrip, WEB-DLRip, HDrip] (DUB, MVO) [ 1.46 GB ] Похищение / Kidnap [2017 BDRip] DUB [] bober100 Скачать
1 | 0
T Фильмы 2016 [DVDrip, WEB-DLRip, HDrip] (DUB, MVO) [ 1.37 GB ] Похищение в Румынии / Kidnapped in Romania [2016 WEB-DLRip Любительский [@MUZOBOZ@] ] oleg8 Скачать
1 | 0

28-11-2019 20:33  

Отключить всю рекламу на сайте

    Дорогой пользователь! Огромная просьба, поблагодарите релизера, оцените раздачу и оставьте свои комментарий, если Вы скачали Похищение через торрент бесплатно! Внесите свою лепту в развитие PiratBit!
    Комментировать посты могут только пользователи прошедшие не сложную регистрацию
    Показать сообщения:    

    Похищение через торрент
    Скачать бесплатно Похищение
    Похищение скачать торрент
    Похищение смотреть онлайн
    Cкачать фильм Похищение бесплатно
    Похищение скачать торрент в хорошем качестве
    Похищение смотреть онлайн бесплатно в хорошем качестве


    Вы не можете начинать темы
    Вы не можете отвечать на сообщения
    Вы не можете редактировать свои сообщения
    Вы не можете удалять свои сообщения
    Вы не можете голосовать в опросах
    Вы не можете прикреплять файлы к сообщениям
    Вы можете скачивать файлы