2 сезон

iTunes

1 сезон

1

iTunes

iTunes

iTunes

1 сезон

RePack

30

ИГРА 18+

pack

ВАЖНО

!!Акция!!

Alien_RageХит недели

RePack

MK11
pack

Забери бонус

RePack

jed

!!Акция!!

Alien_Rage

RePack

fifa19

RePack

Assassins Creed: Odyssey

RePack

NEED FOR SPEED™ PAYBACK

4 сезон

9 сезон

Бесстыжие 9 сезон

Все сериалы

все сериалы на PB.wtf

RePack

FAR CRY 5
  

Захват в Северном море / North Sea Hijack (Эндрю В. МакЛаглен) [1979, боевик, триллер, приключения, BDRip 720p by msltel] DVO pb.wtf

Захват в Северном море через торрент pb.wtf

Размер: 4.35 GB | Добавлен: 3 года назад | Торрент скачан:13 раз
Скачать  

29-10-2017 08:58 Захват в Северном море Скачать торрент  

Название: Захват в Северном море
Оригинальное название: North Sea Hijack
Год выпуска: 1979
Страна: Великобритания
Жанр: боевик, триллер, приключения
Продолжительность: 01:39:33
Перевод: профессиональный двухголосый

Режиссер: Эндрю В. МакЛаглен
В ролях: Роджер Мур, Джеймс Мэйсон, Энтони Перкинс, Майкл Паркс, Дэвид Хедисон, Джек Уотсон, Джордж Бейкер, Джереми Клайд, Дэвид Вуд, Фэйт Брук

О фильме: Известный и безжалостный террорист Крамер вместе со своими напарниками захватывает две нефтяные бурильные вышки в Северном море и требует у британского правительства огромный выкуп в 25 миллионов долларов, в противном случае угрожая взорвать их. У правительства есть только сутки, чтобы выполнить эти требования. На помощь военным приходит отставной военный офицер Руфус вместе со своей анти-террористической командой...



Качество: BDRip 720p
Формат: MKV
Видео: MPEG-4 AVC, 5863 Кбит/с, 1280x694, 23,976 кадр/с
Аудио 1: русский, AC3, 192 kbps, 2 ch [профессиональный двухголосый]
Аудио 2: английский, AC3, 192 kbps, 2 ch, 48 kHz [оригинал]
Субтитры 1: русские
Субтитры 2: английские
Неименованные главы/чаптеры.
Общее
Уникальный идентификатор : 241465569573495842436656412335572349831 (0xB5A893BCB1FE032E8B01F301BF897387)
Полное имя : D:\Video\Захват в Северном море.1979.BDRip.720p by msltel.mkv
Формат : Matroska
Версия формата : Version 4 / Version 2
Размер файла : 4,35 Гбайт
Продолжительность : 1 ч. 39 м.
Общий поток : 6249 Кбит/сек
Название фильма : Rip by msltel
Дата кодирования : UTC 2017-10-29 02:33:56
Программа кодирования : mkvmerge v8.2.0 ('World of Adventure') 64bit
Библиотека кодирования : libebml v1.3.1 + libmatroska v1.4.2

Видео
Идентификатор : 1
Формат : AVC
Формат/Информация : Advanced Video Codec
Профиль формата : High@L4.1
Параметр CABAC формата : Да
Параметр RefFrames формата : 9 кадров
Идентификатор кодека : V_MPEG4/ISO/AVC
Продолжительность : 1 ч. 39 м.
Битрейт : 5863 Кбит/сек
Ширина : 1280 пикселей
Высота : 694 пикселя
Соотношение сторон : 1,85:1
Режим частоты кадров : Постоянный
Частота кадров : 23,976 (24000/1001) кадра/сек
Цветовое пространство : YUV
Субдискретизация насыщенности : 4:2:0
Битовая глубина : 8 бит
Тип развёртки : Прогрессивная
Бит/(Пиксели*Кадры) : 0.275
Размер потока : 4,08 Гбайт (94%)
Библиотека кодирования : x264 core 146 r2538 121396c
Настройки программы : cabac=1 / ref=9 / deblock=1:-3:-2 / analyse=0x3:0x113 / me=umh / subme=11 / psy=1 / psy_rd=1.00:0.15 / mixed_ref=1 / me_range=32 / chroma_me=1 / trellis=2 / 8x8dct=1 / cqm=0 / deadzone=21,11 / fast_pskip=0 / chroma_qp_offset=-3 / threads=6 / lookahead_threads=1 / sliced_threads=0 / nr=0 / decimate=1 / interlaced=0 / bluray_compat=0 / constrained_intra=0 / bframes=8 / b_pyramid=2 / b_adapt=2 / b_bias=0 / direct=1 / weightb=1 / open_gop=0 / weightp=2 / keyint=230 / keyint_min=23 / scenecut=40 / intra_refresh=0 / rc_lookahead=40 / rc=crf / mbtree=0 / crf=18.6 / qcomp=0.60 / qpmin=0 / qpmax=69 / qpstep=4 / vbv_maxrate=62500 / vbv_bufsize=78125 / crf_max=0.0 / nal_hrd=none / filler=0 / ip_ratio=1.40 / pb_ratio=1.30 / aq=1:1.00
Язык : English
Default : Да
Forced : Нет

Аудио #1
Идентификатор : 2
Формат : AC-3
Формат/Информация : Audio Coding 3
Параметр Endianness формата : Big
Идентификатор кодека : A_AC3
Продолжительность : 1 ч. 39 м.
Вид битрейта : Постоянный
Битрейт : 192 Кбит/сек
Каналы : 2 канала
Расположение каналов : Front: L R
Частота : 48,0 КГц
Частота кадров : 31,250 кадров/сек (1536 SPF)
Битовая глубина : 16 бит
Метод сжатия : С потерями
Размер потока : 137 Мбайт (3%)
Заголовок : DVO
Язык : Russian
ServiceKind/String : Complete Main
Default : Да
Forced : Нет

Аудио #2
Идентификатор : 3
Формат : AC-3
Формат/Информация : Audio Coding 3
Параметр Endianness формата : Big
Идентификатор кодека : A_AC3
Продолжительность : 1 ч. 39 м.
Вид битрейта : Постоянный
Битрейт : 192 Кбит/сек
Каналы : 2 канала
Расположение каналов : Front: L R
Частота : 48,0 КГц
Частота кадров : 31,250 кадров/сек (1536 SPF)
Битовая глубина : 16 бит
Метод сжатия : С потерями
Размер потока : 137 Мбайт (3%)
Заголовок : original
Язык : English
ServiceKind/String : Complete Main
Default : Нет
Forced : Нет

Текст #1
Идентификатор : 4
Формат : UTF-8
Идентификатор кодека : S_TEXT/UTF8
Идентификатор кодека/Информация : UTF-8 Plain Text
Продолжительность : 1 ч. 37 м.
Битрейт : 68 бит/сек
ElementCount : 880
Размер потока : 48,5 Кбайт (0%)
Заголовок : русские
Язык : Russian
Default : Нет
Forced : Нет

Текст #2
Идентификатор : 5
Формат : UTF-8
Идентификатор кодека : S_TEXT/UTF8
Идентификатор кодека/Информация : UTF-8 Plain Text
Продолжительность : 1 ч. 37 м.
Битрейт : 53 бит/сек
ElementCount : 877
Размер потока : 38,1 Кбайт (0%)
Заголовок : английские
Язык : English
Default : Нет
Forced : Нет

Меню
00:00:00.000 : :Chapter 01
00:10:52.484 : :Chapter 02
00:24:04.358 : :Chapter 03
00:37:05.806 : :Chapter 04
00:48:51.594 : :Chapter 05
01:01:17.046 : :Chapter 06
01:11:32.496 : :Chapter 07
01:22:07.881 : :Chapter 08
01:39:32.881 : :Chapter 09
pb.wtf



Скачать Захват в Северном море через торрент http://s018.radikal.ru/i517/1710/18/baaa5db78a19.jpg Скачать фильм Захват в Северном море через торрент бесплантно в хорошем качестве О фильме: Известный и безжалостный террорист Крамер вместе со своими напарниками захватывает две нефтяные бурильные вышки в Северном море и ... 10 10 2
Info! Золотая раздача, скачанное не засчитывается.
Торрент: Зарегистрирован [2017-10-29 08:58] · скачан: 13 раз
Статус: √ проверено
Размер: 4.35 GB
Как cкачать? Как скачать Захват в Северном море через торрент | qTorrent

% Раздел Тема Автор DL S | L
Фильмы [HD 720p, 1080p] (Хороший звук DUB, MVO) [ 11.54 GB ] Захват в Северном море / North Sea Hijack [1979 BDRip 1080p by msltel] DVO msltel Скачать
1 | 0

28-11-2019 20:33  

Отключить всю рекламу на сайте

    Дорогой пользователь! Огромная просьба, поблагодарите релизера, оцените раздачу и оставьте свои комментарий, если Вы скачали Захват в Северном море через торрент бесплатно! Внесите свою лепту в развитие PiratBit!
    Комментировать посты могут только пользователи прошедшие не сложную регистрацию
    Показать сообщения:    

    Захват в Северном море через торрент
    Скачать бесплатно Захват в Северном море
    Захват в Северном море скачать торрент
    Захват в Северном море смотреть онлайн
    Cкачать фильм Захват в Северном море бесплатно
    Захват в Северном море скачать торрент в хорошем качестве
    Захват в Северном море смотреть онлайн бесплатно в хорошем качестве


    Вы не можете начинать темы
    Вы не можете отвечать на сообщения
    Вы не можете редактировать свои сообщения
    Вы не можете удалять свои сообщения
    Вы не можете голосовать в опросах
    Вы не можете прикреплять файлы к сообщениям
    Вы можете скачивать файлы