Ссылка на приватное зеркало нашего сайта всего за 1$. Внимание количество ограничено!!!

2 сезон

iTunes

1 сезон

1

2 сезон

2 сезон

iTunes

1 сезон

RePack

30

Ultimate

ВАЖНО

ИГРА 18+

pack

RePack

MK11
pack

Забери бонус

RePack

jed

!!Акция!!

Alien_Rage

RePack

fifa19

RePack

Assassins Creed: Odyssey

RePack

NEED FOR SPEED™ PAYBACK

4 сезон

9 сезон

Бесстыжие 9 сезон

Все сериалы

все сериалы на PB.wtf

RePack

FAR CRY 5
  

Матрица времени / Before I Fall (Ри Руссо-Янг) [2017, Триллер, драма, детектив, BD Remux 1080p] [US Transfer] DUB [Лицензия] pb.wtf

Матрица времени через торрент pb.wtf

Размер: 27.48 GB | Добавлен: 3 года назад | Торрент скачан:59 раз
Скачать  

29-10-2017 09:00 Матрица времени Скачать торрент  

Матрица времени / Before I FallГод выпуска: 2017
Страна: США
Жанр: Триллер, драма, детектив
Продолжительность: 01:38:48
Перевод: Дубляж [Лицензия]
Субтитры: Русские, английские

Режиссер: Ри Руссо-Янг

rating

В ролях:

Зои Дойч, Холстон Сейдж, Логан Миллер, Киан Лоули, Елена Кампурис, Синти У, Медальон Рахими, Эрика Тремблэй, Лив Хьюсон, Николас Ли

Описание:

Саманта — крутая девчонка, которой всегда и во всем везло. Но в тот день, в пятницу, 12 февраля, что-то пошло не так, а потом та авария на трассе... Саманта оказалась в заколдованном круге проклятого дня, и теперь она вынуждена проживать ужас той пятницы снова и снова. Чтобы распутать петлю времени, она должна вычислить ошибку и исправить неверный шаг. Но каждый раз что-то не срабатывает...

Качество: BD Remux 1080p
Формат: MKV
Видео кодек: H.264
Аудио кодек: AC3/DTS-HD MA

Видео: MPEG-4 AVC, 1920x1080, 31.6 Mbit/s, 23.976 fps
Аудио#1: 48 kHz, DTS-HD MA, 5.1, 4000 Kbps | Дублированный | RUS |
Аудио#2: 48 kHz, AC3, 5.1, 640 Kbps | Дублированный | RUS |
Аудио#3: 48 kHz, DTS-HD MA, 5.1, 3563 Kbps | Оригинал | ENG |

Релиз от:
скриншот   скриншот   скриншот   скриншот   скриншот  

General
Unique ID : 177260270449551878131726965472845044905 (0x855B1616813FAC42AF8E895F14D31CA9)
Complete name : G:VideoSSDBefore.I.Fall.2017.Lic.BDREMUX.1080p.ExKinoRay.mkv
Format : Matroska
Format version : Version 4 / Version 2
File size : 27.5 GiB
Duration : 1 h 38 min
Overall bit rate mode : Variable
Overall bit rate : 39.8 Mb/s
Encoded date : UTC 2017-10-29 02:55:54
Writing application : mkvmerge v17.0.0 ('Be Ur Friend') 64-bit
Writing library : libebml v1.3.5 + libmatroska v1.4.8

Video
ID : 1
Format : AVC
Format/Info : Advanced Video Codec
Format profile : High@L4.1
Format settings : CABAC / 4 Ref Frames
Format settings, CABAC : Yes
Format settings, RefFrames : 4 frames
Codec ID : V_MPEG4/ISO/AVC
Duration : 1 h 38 min
Bit rate mode : Variable
Bit rate : 31.6 Mb/s
Maximum bit rate : 35.0 Mb/s
Width : 1 920 pixels
Height : 1 080 pixels
Display aspect ratio : 16:9
Frame rate mode : Constant
Frame rate : 23.976 (24000/1001) FPS
Color space : YUV
Chroma subsampling : 4:2:0
Bit depth : 8 bits
Scan type : Progressive
Bits/(Pixel*Frame) : 0.636
Stream size : 21.8 GiB (79%)
Language : English
Default : Yes
Forced : No

Audio #1
ID : 2
Format : DTS
Format/Info : Digital Theater Systems
Format profile : MA / Core
Mode : 16
Format settings, Endianness : Big
Codec ID : A_DTS
Duration : 1 h 38 min
Bit rate mode : Variable / Constant
Bit rate : 4 000 kb/s / 1 509 kb/s
Channel(s) : 6 channels
Channel positions : Front: L C R, Side: L R, LFE
Sampling rate : 48.0 kHz
Frame rate : 93.750 FPS (512 SPF)
Bit depth : 24 bits
Compression mode : Lossless / Lossy
Stream size : 2.76 GiB (10%)
Title : Dub [License BD RUS]
Language : Russian
Default : Yes
Forced : No

Audio #2
ID : 3
Format : AC-3
Format/Info : Audio Coding 3
Format settings, Endianness : Big
Codec ID : A_AC3
Duration : 1 h 38 min
Bit rate mode : Constant
Bit rate : 640 kb/s
Channel(s) : 6 channels
Channel positions : Front: L C R, Side: L R, LFE
Sampling rate : 48.0 kHz
Frame rate : 31.250 FPS (1536 SPF)
Bit depth : 16 bits
Compression mode : Lossy
Stream size : 452 MiB (2%)
Title : Dub [License BD RUS]
Language : Russian
Service kind : Complete Main
Default : No
Forced : No

Audio #3
ID : 4
Format : DTS
Format/Info : Digital Theater Systems
Format profile : MA / Core
Mode : 16
Format settings, Endianness : Big
Codec ID : A_DTS
Duration : 1 h 38 min
Bit rate mode : Variable / Constant
Bit rate : 3 563 kb/s / 1 509 kb/s
Channel(s) : 6 channels
Channel positions : Front: L C R, Side: L R, LFE
Sampling rate : 48.0 kHz
Frame rate : 93.750 FPS (512 SPF)
Bit depth : 24 bits
Compression mode : Lossless / Lossy
Stream size : 2.46 GiB (9%)
Title : Original
Language : English
Default : No
Forced : No

Text #1
ID : 5
Format : UTF-8
Codec ID : S_TEXT/UTF8
Codec ID/Info : UTF-8 Plain Text
Duration : 1 h 32 min
Bit rate : 85 b/s
Count of elements : 1091
Stream size : 57.6 KiB (0%)
Title : Full
Language : Russian
Default : No
Forced : No

Text #2
ID : 6
Format : UTF-8
Codec ID : S_TEXT/UTF8
Codec ID/Info : UTF-8 Plain Text
Duration : 1 h 32 min
Bit rate : 53 b/s
Count of elements : 1228
Stream size : 36.2 KiB (0%)
Title : Full
Language : English
Default : No
Forced : No

Text #3
ID : 7
Format : UTF-8
Codec ID : S_TEXT/UTF8
Codec ID/Info : UTF-8 Plain Text
Duration : 1 h 32 min
Bit rate : 60 b/s
Count of elements : 1396
Stream size : 40.8 KiB (0%)
Title : SDH
Language : English
Default : No
Forced : No

Text #4
ID : 8
Format : UTF-8
Codec ID : S_TEXT/UTF8
Codec ID/Info : UTF-8 Plain Text
Duration : 1 h 35 min
Bit rate : 74 b/s
Count of elements : 1398
Stream size : 52.1 KiB (0%)
Title : SDH Colored
Language : English
Default : No
Forced : No

Menu
00:00:00.000 : en:00:00:00.000
00:05:23.448 : en:00:05:23.448
00:10:13.321 : en:00:10:13.321
00:14:14.520 : en:00:14:14.520
00:22:23.676 : en:00:22:23.676
00:27:21.932 : en:00:27:21.932
00:33:41.353 : en:00:33:41.353
00:37:41.384 : en:00:37:41.384
00:41:21.145 : en:00:41:21.145
00:46:37.795 : en:00:46:37.795
00:51:22.871 : en:00:51:22.871
00:56:48.238 : en:00:56:48.238
00:59:33.820 : en:00:59:33.820
01:04:07.635 : en:01:04:07.635
01:08:31.566 : en:01:08:31.566
01:13:09.927 : en:01:13:09.927
01:17:50.291 : en:01:17:50.291
01:21:09.531 : en:01:21:09.531
01:25:44.181 : en:01:25:44.181
01:33:19.594 : en:01:33:19.594

pb.wtf



Скачать Матрица времени через торрент http://s018.radikal.ru/i512/1708/a4/219d80eba0ef.jpg Скачать фильм Матрица времени через торрент бесплантно в хорошем качестве Описание: Саманта — крутая девчонка, которой всегда и во всем везло. Но в тот день, в пятницу, 12 февраля, что-то пошло не так, а потом та ... 10 10 3
Info! Золотая раздача, скачанное не засчитывается.
Торрент: Зарегистрирован [2017-10-29 09:00] · скачан: 59 раз
Статус: √ проверено
Размер: 27.48 GB
Как cкачать? Как скачать Матрица времени через торрент | qTorrent

% Раздел Тема Автор DL S | L
Фильмы 2017 [DVDrip, WEB-DLRip, HDrip] (DUB, MVO) [ 1.46 GB ] Матрица времени / Before I Fall [2017 BDRip] - [] Twi7ter Скачать
2 | 0
Фильмы 2017 [DVDrip, WEB-DLRip, HDrip] (DUB, MVO) [ 1.48 GB ] Матрица времени / Before I Fall [2017 BDRip-AVC] DUB [] bober100 Скачать
1 | 0
Фильмы [HD 720p, 1080p] (Хороший звук DUB, MVO) [ 5.62 GB ] Матрица времени / Before I Fall [2017 BDRip 720p] DUB [] bober100 Скачать
1 | 0
Фильмы 2017 [DVDrip, WEB-DLRip, HDrip] (DUB, MVO) [ 1.45 GB ] Матрица времени / Before I Fall [2017 BDRip] DUB [] bober100 Скачать
1 | 0
Фильмы [HD 720p, 1080p] (Хороший звук DUB, MVO) [ 9.31 GB ] Матрица времени / Before I Fall [2017 BDRip 1080p] DUB [] - ExKinoRay Enigma2010 Скачать
1 | 0
Фильмы [HD 720p, 1080p] (Хороший звук DUB, MVO) [ 8.09 GB ] Матрица времени / Before I Fall [2017 BDRip 1080p] bober100 Скачать
1 | 0
Фильмы без перевода [ 24.29 GB ] Матрица времени / Before I Fall [2017 BD Remux] [Оригинал-ENG] smaster Скачать
1 | 0

28-11-2019 20:33  

Отключить всю рекламу на сайте

    Дорогой пользователь! Огромная просьба, поблагодарите релизера, оцените раздачу и оставьте свои комментарий, если Вы скачали Матрица времени через торрент бесплатно! Внесите свою лепту в развитие PiratBit!
    Комментировать посты могут только пользователи прошедшие не сложную регистрацию
    Показать сообщения:    

    Матрица времени через торрент
    Скачать бесплатно Матрица времени
    Матрица времени скачать торрент
    Матрица времени смотреть онлайн
    Cкачать фильм Матрица времени бесплатно
    Матрица времени скачать торрент в хорошем качестве
    Матрица времени смотреть онлайн бесплатно в хорошем качестве


    Вы не можете начинать темы
    Вы не можете отвечать на сообщения
    Вы не можете редактировать свои сообщения
    Вы не можете удалять свои сообщения
    Вы не можете голосовать в опросах
    Вы не можете прикреплять файлы к сообщениям
    Вы можете скачивать файлы