Ссылка на приватное зеркало нашего сайта всего за 1$. Внимание количество ограничено!!!

2 сезон

iTunes

1 сезон

1

iTunes

iTunes

iTunes

1 сезон

RePack

30

ИГРА 18+

pack

ВАЖНО

!!Акция!!

Alien_RageХит недели

RePack

MK11
pack

Забери бонус

RePack

jed

!!Акция!!

Alien_Rage

RePack

fifa19

RePack

Assassins Creed: Odyssey

RePack

NEED FOR SPEED™ PAYBACK

4 сезон

9 сезон

Бесстыжие 9 сезон

Все сериалы

все сериалы на PB.wtf

RePack

FAR CRY 5
  

Летняя пора / Summertime (Дэвид Лин) [1955, драма, мелодрама, BDRip 720p by msltel] MVO pb.wtf

Летняя пора через торрент pb.wtf

Размер: 4.8 GB | Добавлен: 2 года 11 мес. назад | Торрент скачан:4 раза
Скачать  

29-10-2017 10:22 Летняя пора Скачать торрент  

Название: Летняя пора
Оригинальное название: Summertime
Год выпуска: 1955
Страна: Великобритания, США
Жанр: драма, мелодрама
Продолжительность: 01:39:44
Перевод: профессиональный многоголосый

Режиссер: Дэвид Лин
В ролях: Кэтрин Хепбёрн, Россано Брацци, Иза Миранда, Дэррен МакГэвин, Мари Алдон, Джейн Роуз, МакДональд Парк, Джереми Спенсер, Гаэтано Аутьеро, Вирджиния Семен, Дэвид Лин, Таня Лопер, Андре Морелл

О фильме: Симпатичная учительница из маленького американского городка отправляется на летние каникулы в Венецию. Но даже в таком красивом городе ей не избавиться от чувства одиночества. Всё меняется, когда в кафе на Пьяццо Сан-Макрко она привлекает внимание красивого хозяина антикварного магазина...



Качество: BDRip 720p
Формат: MKV
Видео: MPEG-4 AVC, 6506 Kбит/с, 960x720
Аудио 1: русский, AC3, 192 kbps, 2 ch [профессиональный многоголосый, Спб, 5 канал]
Аудио 2: английский, AC3, 192 kbps, 2 ch, 48 kHz [оригинал]
Неименованные главы/чаптеры.
Общее
Уникальный идентификатор : 179295331474098634145827681955435003913 (0x86E30657D1230CF58853FE7986984009)
Полное имя : D:\Video\Летняя пора.1955.BDRip.720p by msltel.mkv
Формат : Matroska
Версия формата : Version 4 / Version 2
Размер файла : 4,80 Гбайт
Продолжительность : 1 ч. 39 м.
Общий поток : 6892 Кбит/сек
Название фильма : Rip by msltel
Дата кодирования : UTC 2017-10-29 08:23:23
Программа кодирования : mkvmerge v8.2.0 ('World of Adventure') 64bit
Библиотека кодирования : libebml v1.3.1 + libmatroska v1.4.2

Видео
Идентификатор : 1
Формат : AVC
Формат/Информация : Advanced Video Codec
Профиль формата : High@L4.1
Параметр CABAC формата : Да
Параметр RefFrames формата : 9 кадров
Идентификатор кодека : V_MPEG4/ISO/AVC
Продолжительность : 1 ч. 39 м.
Битрейт : 6506 Кбит/сек
Ширина : 960 пикселей
Высота : 720 пикселей
Соотношение сторон : 4:3
Режим частоты кадров : Постоянный
Частота кадров : 23,976 (24000/1001) кадра/сек
Цветовое пространство : YUV
Субдискретизация насыщенности : 4:2:0
Битовая глубина : 8 бит
Тип развёртки : Прогрессивная
Бит/(Пиксели*Кадры) : 0.393
Размер потока : 4,53 Гбайт (94%)
Библиотека кодирования : x264 core 146 r2538 121396c
Настройки программы : cabac=1 / ref=9 / deblock=1:-3:-2 / analyse=0x3:0x113 / me=umh / subme=11 / psy=1 / psy_rd=1.00:0.15 / mixed_ref=1 / me_range=32 / chroma_me=1 / trellis=2 / 8x8dct=1 / cqm=0 / deadzone=21,11 / fast_pskip=0 / chroma_qp_offset=-3 / threads=6 / lookahead_threads=1 / sliced_threads=0 / nr=0 / decimate=1 / interlaced=0 / bluray_compat=0 / constrained_intra=0 / bframes=11 / b_pyramid=2 / b_adapt=2 / b_bias=0 / direct=1 / weightb=1 / open_gop=0 / weightp=2 / keyint=230 / keyint_min=23 / scenecut=40 / intra_refresh=0 / rc_lookahead=40 / rc=crf / mbtree=0 / crf=20.1 / qcomp=0.60 / qpmin=0 / qpmax=69 / qpstep=4 / vbv_maxrate=62500 / vbv_bufsize=78125 / crf_max=0.0 / nal_hrd=none / filler=0 / ip_ratio=1.40 / pb_ratio=1.30 / aq=1:1.00
Язык : English
Default : Да
Forced : Нет

Аудио #1
Идентификатор : 2
Формат : AC-3
Формат/Информация : Audio Coding 3
Режим : Dolby Digital
Параметр Endianness формата : Big
Идентификатор кодека : A_AC3
Продолжительность : 1 ч. 39 м.
Вид битрейта : Постоянный
Битрейт : 192 Кбит/сек
Каналы : 2 канала
Расположение каналов : Front: L R
Частота : 48,0 КГц
Частота кадров : 31,250 кадров/сек (1536 SPF)
Битовая глубина : 16 бит
Метод сжатия : С потерями
Размер потока : 137 Мбайт (3%)
Заголовок : MVO.Спб, 5 канал
Язык : Russian
ServiceKind/String : Complete Main
Default : Да
Forced : Нет

Аудио #2
Идентификатор : 3
Формат : AC-3
Формат/Информация : Audio Coding 3
Параметр Endianness формата : Big
Идентификатор кодека : A_AC3
Продолжительность : 1 ч. 39 м.
Вид битрейта : Постоянный
Битрейт : 192 Кбит/сек
Каналы : 2 канала
Расположение каналов : Front: L R
Частота : 48,0 КГц
Частота кадров : 31,250 кадров/сек (1536 SPF)
Битовая глубина : 16 бит
Метод сжатия : С потерями
Размер потока : 137 Мбайт (3%)
Заголовок : original
Язык : English
ServiceKind/String : Complete Main
Default : Нет
Forced : Нет

Меню
00:00:00.000 : :Chapter 01
00:01:30.298 : :Chapter 02
00:05:58.857 : :Chapter 03
00:10:24.624 : :Chapter 04
00:16:03.212 : :Chapter 05
00:23:37.457 : :Chapter 06
00:24:52.949 : :Chapter 07
00:30:50.848 : :Chapter 08
00:43:14.425 : :Chapter 09
00:49:05.442 : :Chapter 10
00:59:21.182 : :Chapter 11
01:04:31.200 : :Chapter 12
01:06:55.636 : :Chapter 13
01:09:11.313 : :Chapter 14
01:11:30.536 : :Chapter 15
01:13:11.011 : :Chapter 16
01:18:34.334 : :Chapter 17
01:25:40.677 : :Chapter 18
01:29:17.018 : :Chapter 19
01:35:26.345 : :Chapter 20
01:39:43.978 : :Chapter 21
pb.wtf



Скачать Летняя пора через торрент http://s016.radikal.ru/i337/1710/fb/f1f99788a58c.jpg Скачать фильм Летняя пора через торрент бесплантно в хорошем качестве О фильме: Симпатичная учительница из маленького американского городка отправляется на летние каникулы в Венецию. Но даже в таком красивом ... 10 10 1
Info! Золотая раздача, скачанное не засчитывается.
Торрент: Зарегистрирован [2017-10-29 10:22] · скачан: 4 раз
Статус: √ проверено
Размер: 4.8 GB
Как cкачать? Как скачать Летняя пора через торрент | qTorrent

% Раздел Тема Автор DL S | L
Фильмы [HD 720p, 1080p] (Хороший звук DUB, MVO) [ 10.33 GB ] Летняя пора / Summertime [1955 BDRip 1080p by msltel] MVO msltel Скачать
1 | 0

28-11-2019 20:33  

Отключить всю рекламу на сайте

    Дорогой пользователь! Огромная просьба, поблагодарите релизера, оцените раздачу и оставьте свои комментарий, если Вы скачали Летняя пора через торрент бесплатно! Внесите свою лепту в развитие PiratBit!
    Комментировать посты могут только пользователи прошедшие не сложную регистрацию
    Показать сообщения:    

    Летняя пора через торрент
    Скачать бесплатно Летняя пора
    Летняя пора скачать торрент
    Летняя пора смотреть онлайн
    Cкачать фильм Летняя пора бесплатно
    Летняя пора скачать торрент в хорошем качестве
    Летняя пора смотреть онлайн бесплатно в хорошем качестве


    Вы не можете начинать темы
    Вы не можете отвечать на сообщения
    Вы не можете редактировать свои сообщения
    Вы не можете удалять свои сообщения
    Вы не можете голосовать в опросах
    Вы не можете прикреплять файлы к сообщениям
    Вы можете скачивать файлы