2 сезон

iTunes

MVO

1

2 сезон

iTunes

iTunes

1 сезон

RePack

30

Новинка

ВАЖНО

ИГРА 18+

pack

RePack

MK11
pack

Легкие деньги

RePack

jed

RePack

fifa19

RePack

RDR2

RePack

NEED FOR SPEED™ PAYBACK

4 сезон

9 сезон

Бесстыжие 9 сезон

Все сериалы

все сериалы на PB.wtf

RePack

FAR CRY 5

Anonymous, доброй ночи, мы не успеваем собрать деньги на оплату серверов за декабрь и январь, помогите нам пожалуйста в это трудное время. В качестве благодарности мы отключим Вам всю рекламу на сайте (укажите свой ник в строку Ваше имя)!

×
  
Magnet ссылка

Одарённая / Gifted (Марк Уэбб / Marc Webb) [2017, США, драма, BDRip-AVC] Dub [Лицензия] pb.wtf

Одарённая через торрент pb.wtf

Раздают: 1 [ 0 KB/s ]
Размер: 777 MB | Добавлен: 3 года 2 мес. назад | Торрент скачан:171 раз
Скачать  

29-10-2017 14:12 Одарённая Скачать торрент  

Одарённая
Gifted


Страна: США
Жанр: драма

Год выпуска: 2017
Продолжительность: 01:41:10

Перевод: Профессиональный (полное дублирование) [Blu-ray EUR]
Субтитры: русские (форсированные, полные)
Оригинальная аудиодорожка: нет

Режиссер: Марк Уэбб / Marc Webb

В ролях: Крис Эванс, МакКенна Грейс, Линдси Дункан, Дженни Слейт, Октавия Спенсер, Майкл Кендалл Каплан, Джон М. Джексон, Гленн Пламмер, Джон Финн, Элизабет Марвел, Кендес Б. Харрис, Джон Скларофф

Описание:
Фрэнк Адлер живет в прибрежном городке во Флориде и воспитывает в одиночку свою необычайно одаренную племянницу Мэри. Но планы парня о спокойной школьной жизни для девочки рушатся, когда о математических способностях ребенка узнает грозная мать Фрэнка Эвелин. У бабушки свои представления о будущем внучки, и ради этого она готова даже разлучить Мэри с Фрэнком.



Релиз:

Автор рипа: stalkerok | Моя группа

Сэмпл

Качество видео: BDRip-AVC [Gifted (2017) Blu-ray Disc [EUR] -JATO]
Формат видео: MKV
Видео кодек: AVC
Аудио кодек: AAC
Видео: 1009 Кбит/сек, 888*370 (2,40:1), в 23,976 (24000/1001) кадра/сек, AVC
Аудио: русский, 62,0 Кбит/сек, 48,0 КГц / 24,0 КГц, 2 канала, AAC (HE-AAC / LC)
Навигация по главам: есть

x264 [info]: frame I:1214 Avg QP:17.52 size: 41520
x264 [info]: frame P:26960 Avg QP:19.24 size: 12136
x264 [info]: frame B:117363 Avg QP:21.66 size: 3307

Общее
Уникальный идентификатор : 227576306756885625449259232473173770616 (0xAB359A35AE7461F5A89F14C7E5C8C178)
Полное имя : M:\!Rips2017\Gifted (2017)\Gifted.2017.BDRip-AVC.RUS..stalkerok.new-team.mkv
Формат : Matroska
Версия формата : Version 4 / Version 2
Размер файла : 777 Мбайт
Продолжительность : 1 ч. 41 м.
Общий поток : 1073 Кбит/сек
Название фильма : Gifted (2017) (Rip by stalkerok)
Дата кодирования : UTC 2017-10-28 19:30:07
Программа кодирования : mkvmerge v8.6.1 ('Flying') 64bit
Библиотека кодирования : libebml v1.3.3 + libmatroska v1.4.4

Видео
Идентификатор : 1
Формат : AVC
Формат/Информация : Advanced Video Codec
Профиль формата : High@L4.1
Параметр CABAC формата : Да
Параметр ReFrames формата : 16 кадров
Идентификатор кодека : V_MPEG4/ISO/AVC
Продолжительность : 1 ч. 41 м.
Битрейт : 1009 Кбит/сек
Ширина : 888 пикселей
Высота : 370 пикселей
Соотношение сторон : 2,40:1
Режим частоты кадров : Постоянный
Частота кадров : 23,976 (24000/1001) кадра/сек
Цветовое пространство : YUV
Субдискретизация насыщенности : 4:2:0
Битовая глубина : 8 бит
Тип развёртки : Прогрессивная
Бит/(Пиксели*Кадры) : 0.128
Размер потока : 730 Мбайт (94%)
Заголовок : Gifted (2017) (Rip by stalkerok)
Библиотека кодирования : x264 core 150 r2833kMod df79067
Настройки программы : cabac=1 / ref=16 / deblock=1:-3:-2 / analyse=0x3:0x133 / me=umh / subme=11 / psy=1 / fade_compensate=0.00 / psy_rd=1.00:0.00 / mixed_ref=1 / me_range=32 / chroma_me=1 / trellis=2 / 8x8dct=1 / cqm=0 / deadzone=21,11 / fast_pskip=0 / chroma_qp_offset=-2 / threads=12 / lookahead_threads=2 / sliced_threads=0 / nr=0 / decimate=1 / interlaced=0 / bluray_compat=0 / constrained_intra=0 / bframes=16 / b_pyramid=2 / b_adapt=2 / b_bias=0 / direct=3 / weightb=1 / open_gop=0 / weightp=2 / keyint=240 / keyint_min=23 / scenecut=40 / intra_refresh=0 / rc_lookahead=60 / rc=crf / mbtree=0 / crf=19.1000 / qcomp=0.65 / qpmin=0 / qpmax=69 / qpstep=4 / vbv_maxrate=50000 / vbv_bufsize=62500 / crf_max=0.0 / nal_hrd=none / filler=0 / ip_ratio=1.40 / pb_ratio=1.30 / aq=3:0.90 / zones=139679,145536,q=36
Default : Да
Forced : Нет

Аудио
Идентификатор : 2
Формат : AAC
Формат/Информация : Advanced Audio Codec
Профиль формата : HE-AAC / LC
Идентификатор кодека : A_AAC
Продолжительность : 1 ч. 41 м.
Битрейт : 62,0 Кбит/сек
Каналы : 2 канала
Расположение каналов : Front: L R
Частота : 48,0 КГц / 24,0 КГц
Частота кадров : 23,438 кадра/сек (1024 spf)
Метод сжатия : С потерями
Задержка видео : 31 мс.
Размер потока : 44,9 Мбайт (6%)
Язык : Russian
Default : Да
Forced : Нет

Текст #1
Идентификатор : 3
Формат : UTF-8
Идентификатор кодека : S_TEXT/UTF8
Идентификатор кодека/Информация : UTF-8 Plain Text
Продолжительность : 1 ч. 32 м.
Битрейт : 0 бит/сек
Count of elements : 11
Размер потока : 446 байт (0%)
Заголовок : forced
Язык : Russian
Default : Да
Forced : Нет

Текст #2
Идентификатор : 4
Формат : UTF-8
Идентификатор кодека : S_TEXT/UTF8
Идентификатор кодека/Информация : UTF-8 Plain Text
Продолжительность : 1 ч. 40 м.
Битрейт : 105 бит/сек
Count of elements : 1534
Размер потока : 77,6 Кбайт (0%)
Язык : Russian
Default : Нет
Forced : Нет

Меню
00:00:00.000 : en:Chapter 1
00:04:36.317 : en:Chapter 2
00:07:49.302 : en:Chapter 3
00:12:55.524 : en:Chapter 4
00:18:50.003 : en:Chapter 5
00:22:23.008 : en:Chapter 6
00:29:13.084 : en:Chapter 7
00:33:18.830 : en:Chapter 8
00:37:56.399 : en:Chapter 9
00:42:57.825 : en:Chapter 10
00:45:34.356 : en:Chapter 11
00:48:06.675 : en:Chapter 12
00:50:58.805 : en:Chapter 13
00:54:31.685 : en:Chapter 14
00:59:05.959 : en:Chapter 15
01:03:52.787 : en:Chapter 16
01:08:44.787 : en:Chapter 17
01:14:52.279 : en:Chapter 18
01:19:29.347 : en:Chapter 19
01:23:44.769 : en:Chapter 20
01:26:54.751 : en:Chapter 21
01:29:38.831 : en:Chapter 22
01:32:49.272 : en:Chapter 23
01:35:36.647 : en:Chapter 24
скриншот   скриншот   скриншот   скриншот   скриншот   скриншот   скриншот   скриншот  
pb.wtf



Скачать Одарённая через торрент http://i6.imageban.ru/out/2017/09/18/2ff75c0c358795c5946784cc1680714d.png Скачать фильм Одарённая через торрент бесплантно в хорошем качестве Описание:Фрэнк Адлер живет в прибрежном городке во Флориде и воспитывает в одиночку свою необычайно одаренную племянницу Мэри. Но планы ... 10 10 1
Info! Золотая раздача, скачанное не засчитывается.
Торрент: Зарегистрирован [2017-10-29 14:12] · скачан: 171 раз
Статус: √ проверено
Размер: 777 MB
Как cкачать? Как скачать Одарённая через торрент | UTorrent

% Раздел Тема Автор DL S | L
Зарубежные сериалы [ 8.6 GB ] Одарённые / The Gifted / Сезон: 2 / Серии: 1-16 из 16 [2018 фэнтэзи WEB-DLRip] MVO [NewStudio] bober100 Скачать
1 | 0
Зарубежные сериалы [ 46.15 GB ] Одаренные / The Gifted / Сезон: 2 / Серии: 1-16 из 16 [2018 WEB-DL 1080p] 2x[MVO] killermax2013 Скачать
1 | 0
Зарубежные сериалы [ 40.85 GB ] Одаренные / The Gifted / Сезон: 1 / Серии: 1-13 из 13 [2017 WEB-DL 1080p] MVO [LostFilm] bober100 Скачать
1 | 0
Зарубежные сериалы [ 19.94 GB ] Одаренные / The Gifted / Сезон: 2 / Серии: 1-16 из 16 [2018 WEB-DL 720p] [MVO] killermax2013 Скачать
1 | 0
Зарубежные сериалы [ 8.54 GB ] Одаренные / The Gifted / Сезон: 2 / Серии: 1-16 из 16 [2018 WEB-DLRip] [MVO] killermax2013 Скачать
1 | 0
Зарубежные сериалы [ 30.99 GB ] Одарённые / The Gifted / 2 сезон / Серии: 1-16 из 16 [2018 WEB-DL 1080p] [MVO] killermax2013 Скачать
1 | 0
Зарубежные сериалы [ 41.38 GB ] Одарённые / The Gifted / 2 сезон / 1-16 серия из 16 [2018 WEB-DL 1080p] [MVO] killermax2013 Скачать
1 | 0

28-11-2019 20:33  

Отключить всю рекламу на сайте

    Дорогой пользователь! Огромная просьба, поблагодарите релизера, оцените раздачу и оставьте свои комментарий, если Вы скачали Одарённая через торрент бесплатно! Внесите свою лепту в развитие PiratBit!
    Комментировать посты могут только пользователи прошедшие не сложную регистрацию
    Показать сообщения:    

    Одарённая через торрент
    Скачать бесплатно Одарённая
    Одарённая скачать торрент
    Одарённая смотреть онлайн
    Cкачать фильм Одарённая бесплатно
    Одарённая скачать торрент в хорошем качестве
    Одарённая смотреть онлайн бесплатно в хорошем качестве


    Вы не можете начинать темы
    Вы не можете отвечать на сообщения
    Вы не можете редактировать свои сообщения
    Вы не можете удалять свои сообщения
    Вы не можете голосовать в опросах
    Вы не можете прикреплять файлы к сообщениям
    Вы можете скачивать файлы