2 сезон

iTunes

MVO

1

2 сезон

iTunes

iTunes

1 сезон

RePack

30

Новинка

ВАЖНО

ИГРА 18+

pack

RePack

MK11
pack

Легкие деньги

RePack

jed

RePack

fifa19

RePack

RDR2

RePack

NEED FOR SPEED™ PAYBACK

4 сезон

9 сезон

Бесстыжие 9 сезон

Все сериалы

все сериалы на PB.wtf

RePack

FAR CRY 5

Anonymous, добрый вечер, мы не успеваем собрать деньги на оплату серверов за декабрь и январь, помогите нам пожалуйста в это трудное время. В качестве благодарности мы отключим Вам всю рекламу на сайте (укажите свой ник в строку Ваше имя)!

×
  
Magnet ссылка

Похищение / Kidnap (Луис Прието) [2017, Триллер, драма, BDRip-AVC] DUB [Лицензия] [RUS-Transfer] - ExKinoRay pb.wtf

Похищение через торрент pb.wtf

Размер: 1.36 GB | Добавлен: 3 года 2 мес. назад | Торрент скачан:389 раз
Скачать  

29-10-2017 20:24 Похищение Скачать торрент  

Информация о фильме
Название: Похищение
Оригинальное название: Kidnap
Год выпуска: 2017
Жанр: Триллер, драма
Страна: США
Студия: 606 Films, Di Bonaventura Pictures, Gold Star Films
Продолжительность: 01:34:48
Перевод: Дублированный | Лицензия
Режиссер: Луис Прието
В ролях: Холли Берри, Дэна Гурье, Лью Темпл, Кристофер Берри, Роберт Уокер Браншод, Курт Краузе, Ричи Монтгомери, Малия Ричардсон, Джастин Лебрун, Диди Костин

Описание:
Знаете ли вы, что в США каждые 40 секунд пропадает один ребенок? ​Когда Карла видит, как кто-то увозит ее сына, а полицейские бездействуют, она бросается в погоню за похитителями. Без раздумий, без страха, без… телефона. В этой гонке со временем для спасения собственного ребенка ни скорости, ни риски не имеют значения.




Файл
Контейнер: MKV
Качество: BDRip-AVC
Видео: AVC, 720x302 (2.40:1), 24.000 fps, 1615 Kbps, 0.309 bit/pixel
Аудио: AC-3, 48.0 KHz, 6 ch, 448 Kbps, CBR (Russian)
General
Unique ID : 247500368062188239943168590842800020253 (0xBA32D64645ECACEA987105F14E369B1D)
Complete name : D:\Kidnap.2017.BDRip.AVC.ExKinoRay.mkv
Format : Matroska
Format version : Version 2
File size : 1.36 GiB
Duration : 1 h 34 min
Overall bit rate : 2 061 kb/s
Movie name : Kidnap (2017) from ExKinoRay
Encoded date : UTC 2017-10-29 05:26:44
Writing application : mkvmerge v5.6.0 ('Kenya Kane') built on May 27 2012 16:44:04
Writing library : libebml v1.2.3 + libmatroska v1.3.0

Video
ID : 1
Format : AVC
Format/Info : Advanced Video Codec
Format profile : High@L4.1
Format settings, CABAC : Yes
Format settings, ReFrames : 12 frames
Codec ID : V_MPEG4/ISO/AVC
Duration : 1 h 34 min
Bit rate : 1 615 kb/s
Width : 720 pixels
Height : 302 pixels
Display aspect ratio : 2.40:1
Frame rate mode : Constant
Frame rate : 24.000 FPS
Color space : YUV
Chroma subsampling : 4:2:0
Bit depth : 8 bits
Scan type : Progressive
Bits/(Pixel*Frame) : 0.309
Stream size : 1.04 GiB (76%)
Title : Enigma
Writing library : x264 core 152 r2851 ba24899
Encoding settings : cabac=1 / ref=12 / deblock=1:-2:-2 / analyse=0x3:0x113 / me=umh / subme=10 / psy=1 / psy_rd=1.00:0.05 / mixed_ref=1 / me_range=32 / chroma_me=1 / trellis=2 / 8x8dct=1 / cqm=0 / deadzone=21,11 / fast_pskip=1 / chroma_qp_offset=-3 / threads=9 / lookahead_threads=2 / sliced_threads=0 / nr=0 / decimate=0 / interlaced=0 / bluray_compat=0 / constrained_intra=0 / bframes=10 / b_pyramid=2 / b_adapt=2 / b_bias=0 / direct=3 / weightb=1 / open_gop=0 / weightp=2 / keyint=240 / keyint_min=24 / scenecut=40 / intra_refresh=0 / rc_lookahead=40 / rc=2pass / mbtree=0 / bitrate=1615 / ratetol=1.0 / qcomp=0.60 / qpmin=0 / qpmax=51 / qpstep=4 / cplxblur=20.0 / qblur=0.5 / vbv_maxrate=50000 / vbv_bufsize=62500 / nal_hrd=none / filler=0 / ip_ratio=1.40 / pb_ratio=1.30 / aq=1:1.00
Default : Yes
Forced : No
Color range : Limited
Color primaries : BT.709
Transfer characteristics : BT.709
Matrix coefficients : BT.709

Audio
ID : 2
Format : AC-3
Format/Info : Audio Coding 3
Mode extension : CM (complete main)
Format settings, Endianness : Big
Codec ID : A_AC3
Duration : 1 h 34 min
Bit rate mode : Constant
Bit rate : 448 kb/s
Channel(s) : 6 channels
Channel positions : Front: L C R, Side: L R, LFE
Sampling rate : 48.0 kHz
Frame rate : 31.250 FPS (1536 spf)
Compression mode : Lossy
Stream size : 304 MiB (22%)
Title : Dub (Blu Ray)
Language : Russian
Default : Yes
Forced : No

Menu
00:00:00.000 : :Chapter 01
00:04:07.000 : :Chapter 02
00:12:33.708 : :Chapter 03
00:27:51.875 : :Chapter 04
00:39:33.500 : :Chapter 05
00:50:25.250 : :Chapter 06
01:01:24.083 : :Chapter 07
01:08:39.541 : :Chapter 08
01:19:06.875 : :Chapter 09
Релиз от:

Автор релиза: pb.wtf



Скачать Похищение через торрент http://i91.fastpic.ru/big/2017/1016/cd/9a1893945e4082e869dfd3d1822b0ccd.jpg Скачать фильм Похищение через торрент бесплантно в хорошем качестве Описание: Знаете ли вы, что в США каждые 40 секунд пропадает один ребенок? ​Когда Карла видит, как кто-то увозит ее сына, а полицейские ... 8.7 10 7
Info! Золотая раздача, скачанное не засчитывается.
Торрент: Зарегистрирован [2017-10-29 20:24] · скачан: 389 раз
Статус: √ проверено
Размер: 1.36 GB
Как cкачать? Как скачать Похищение через торрент | UTorrent

28-11-2019 20:33  

Отключить всю рекламу на сайте


    Дорогой пользователь! Огромная просьба, поблагодарите релизера, оцените раздачу и оставьте свои комментарий, если Вы скачали Похищение через торрент бесплатно! Внесите свою лепту в развитие PiratBit!
    Комментировать посты могут только пользователи прошедшие не сложную регистрацию
    Показать сообщения:    

    Похищение через торрент
    Скачать бесплатно Похищение
    Похищение скачать торрент
    Похищение смотреть онлайн
    Cкачать фильм Похищение бесплатно
    Похищение скачать торрент в хорошем качестве
    Похищение смотреть онлайн бесплатно в хорошем качестве


    Вы не можете начинать темы
    Вы не можете отвечать на сообщения
    Вы не можете редактировать свои сообщения
    Вы не можете удалять свои сообщения
    Вы не можете голосовать в опросах
    Вы не можете прикреплять файлы к сообщениям
    Вы можете скачивать файлы