Ссылка на приватное зеркало нашего сайта всего за 1$. Внимание количество ограничено!!!

2 сезон

iTunes

1 сезон

1

2 сезон

2 сезон

iTunes

1 сезон

RePack

30

Ultimate

ВАЖНО

ИГРА 18+

pack

RePack

MK11
pack

Забери бонус

RePack

jed

!!Акция!!

Alien_Rage

RePack

fifa19

RePack

Assassins Creed: Odyssey

RePack

NEED FOR SPEED™ PAYBACK

4 сезон

9 сезон

Бесстыжие 9 сезон

Все сериалы

все сериалы на PB.wtf

RePack

FAR CRY 5
  

Техасская резня бензопилой: Кожаное лицо / Leatherface (Александр Бустильо, Жюльен Мори) [2017, ужасы, триллер, WEB-DL 720p] DUB [iTunes] pb.wtf

Техасская резня бензопилой: Кожаное лицо через торрент pb.wtf

Размер: 2.97 GB | Добавлен: 3 года назад | Торрент скачан:368 раз
Скачать  

29-10-2017 22:28 Техасская резня бензопилой: Кожаное лицо Скачать торрент  

Техасская резня бензопилой: Кожаное лицо / Leatherface
Год выпуска: 2017
Страна: США
Жанр: ужасы, триллер
Продолжительность: 01:27:41
Перевод: Дубляж iTunes
Субтитры: английские

Режиссер: Александр Бустильо, Жюльен Мори

rating

В ролях:

Стивен Дорфф, Ванесса Грасс, Сэм Страйк, Лили Тейлор, Финн Джонс, Николь Эндрюс, Джеймс Блур, Сэм Коулман, Симона Левин, Кристофер Адамсон

Описание:

При побеге из лечебницы для душевнобольных, четверо подростков похищают молодую медсестру. В погоню за ними пускается отряд полицейских во главе с техасским рейнджером Хэлом Хартменом, мстительным и беспощадным. Один из беглецов встает на полный трагедий и ужасов путь, который превратит его в маньяка — легенду по имени «Кожаное лицо».

Качество: WEB-DL 720p
Формат: MKV
Видео кодек: H.264
Аудио кодек: AC3

Видео: MPEG-4 AVC, 3981 Кбит/с, 1280x528
Аудио#1: Русский (AC3, 6 ch, 384 Кбит/с)
Аудио#2: английский (AC3, 6 ch, 384 Кбит/с)
скриншот   скриншот   скриншот  

Общее
Уникальный идентификатор : 212256942767117824581527610478561443796 (0x9FAF33402BE1758AACEA83DBF861BFD4)
Полное имя : D:\Leatherface.2017.D.WEB-DL.72Op.mkv
Формат : Matroska
Версия формата : Version 2
Размер файла : 2,97 Гбайт
Продолжительность : 1 ч. 27 м.
Общий поток : 4846 Кбит/сек
Дата кодирования : UTC 2017-10-29 20:06:38
Программа кодирования : mkvmerge v8.3.0 ('Over the Horizon') 64bit
Библиотека кодирования : libebml v1.3.1 + libmatroska v1.4.2

Видео
Идентификатор : 1
Формат : AVC
Формат/Информация : Advanced Video Codec
Профиль формата : High@L4.1
Параметр CABAC формата : Да
Параметр ReFrames формата : 4 кадра
Идентификатор кодека : V_MPEG4/ISO/AVC
Продолжительность : 1 ч. 27 м.
Битрейт : 3981 Кбит/сек
Ширина : 1280 пикселей
Высота : 528 пикселей
Соотношение сторон : 2,40:1
Режим частоты кадров : Постоянный
Частота кадров : 23,976 (24000/1001) кадра/сек
Цветовое пространство : YUV
Субдискретизация насыщенности : 4:2:0
Битовая глубина : 8 бит
Тип развёртки : Прогрессивная
Бит/(Пиксели*Кадры) : 0.246
Размер потока : 2,44 Гбайт (82%)
Язык : English
Default : Да
Forced : Нет

Аудио #1
Идентификатор : 2
Формат : AC-3
Формат/Информация : Audio Coding 3
Расширение режима : CM (complete main)
Параметр Endianness формата : Big
Идентификатор кодека : A_AC3
Продолжительность : 1 ч. 27 м.
Вид битрейта : Постоянный
Битрейт : 384 Кбит/сек
Каналы : 6 каналов
Расположение каналов : Front: L C R, Side: L R, LFE
Частота : 48,0 КГц
Частота кадров : 31,250 кадров/сек (1536 spf)
Метод сжатия : С потерями
Размер потока : 241 Мбайт (8%)
Язык : Russian
Default : Да
Forced : Нет

Аудио #2
Идентификатор : 3
Формат : AC-3
Формат/Информация : Audio Coding 3
Расширение режима : CM (complete main)
Параметр Endianness формата : Big
Идентификатор кодека : A_AC3
Продолжительность : 1 ч. 27 м.
Вид битрейта : Постоянный
Битрейт : 384 Кбит/сек
Каналы : 6 каналов
Расположение каналов : Front: L C R, Side: L R, LFE
Частота : 48,0 КГц
Частота кадров : 31,250 кадров/сек (1536 spf)
Метод сжатия : С потерями
Размер потока : 241 Мбайт (8%)
Язык : English
Default : Нет
Forced : Нет

Текст
Идентификатор : 4
Формат : UTF-8
Идентификатор кодека : S_TEXT/UTF8
Идентификатор кодека/Информация : UTF-8 Plain Text
Язык : English
Default : Нет
Forced : Нет

Меню
00:00:00.000 : en:01
00:05:51.000 : en:02
00:10:51.000 : en:03
00:15:51.000 : en:04
00:22:28.000 : en:05
00:27:42.000 : en:06
00:34:11.000 : en:07
00:40:45.000 : en:08
00:45:45.000 : en:09
00:51:53.000 : en:10
00:57:28.000 : en:11
01:02:26.000 : en:12
01:07:40.000 : en:13
01:13:02.000 : en:14
01:18:59.000 : en:15
01:24:16.000 : en:16

pb.wtf



Скачать Техасская резня бензопилой: Кожаное лицо через торрент http://s019.radikal.ru/i626/1709/39/919928e05d23.jpg Скачать фильм Техасская резня бензопилой: Кожаное лицо через торрент бесплантно в хорошем качестве Описание: При побеге из лечебницы для душевнобольных, четверо подростков похищают молодую медсестру. В погоню за ними пускается отряд ... 9.4 10 16
Торрент: Зарегистрирован [2017-10-29 22:28] · скачан: 368 раз
Статус: √ проверено
Размер: 2.97 GB
Как cкачать? Как скачать Техасская резня бензопилой: Кожаное лицо через торрент | qTorrent

% Раздел Тема Автор DL S | L
Фильмы 2017 [DVDrip, WEB-DLRip, HDrip] (DUB, MVO) [ 1.78 GB ] Техасская резня бензопилой: Кожаное лицо / Leatherface [2017 BDRip ()] winchester00100010 Скачать
2 | 0
Фильмы [HD 720p, 1080p] (Хороший звук DUB, MVO) [ 4.68 GB ] Техасская резня бензопилой: Кожаное лицо / Leatherface [2017 BDRip 720p] bober100 Скачать
1 | 0
Фильмы [HD 720p, 1080p] (Хороший звук DUB, MVO) [ 8.98 GB ] Техасская резня бензопилой: Кожаное лицо / Leatherface [2017 BDRip 1080p] bober100 Скачать
1 | 0
Фильмы 2017 [DVDrip, WEB-DLRip, HDrip] (DUB, MVO) [ 1.46 GB ] Техасская резня бензопилой: Кожаное лицо / Leatherface [2017 BDRip] - [] Twi7ter Скачать
1 | 0
Фильмы (Blu-ray, BD-Remux, HDDVD) [ 23.59 GB ] Техасская резня бензопилой: Кожаное лицо / Leatherface [2017 BD Remux 1080p] bober100 Скачать
1 | 0
Фильмы 2017 [DVDrip, WEB-DLRip, HDrip] (DUB, MVO) [ 746 MB ] Техасская резня бензопилой: Кожаное лицо / Leatherface [2017 HDRip] bober100 Скачать
1 | 0
Фильмы 2017 [DVDrip, WEB-DLRip, HDrip] (DUB, MVO) [ 1.6 GB ] Техасская резня бензопилой: Кожаное лицо / Leatherface [2017 WEB-DLRip-AVC] bober100 Скачать
1 | 0

28-11-2019 20:33  

Отключить всю рекламу на сайте

21-11-2017 11:02 Техасская резня бензопилой: Кожаное лицо Скачать торрент  

неплохой фильмpb.wtf



    Дорогой пользователь! Огромная просьба, поблагодарите релизера, оцените раздачу и оставьте свои комментарий, если Вы скачали Техасская резня бензопилой: Кожаное лицо через торрент бесплатно! Внесите свою лепту в развитие PiratBit!
    Комментировать посты могут только пользователи прошедшие не сложную регистрацию
    Показать сообщения:    

    Техасская резня бензопилой: Кожаное лицо через торрент
    Скачать бесплатно Техасская резня бензопилой: Кожаное лицо
    Техасская резня бензопилой: Кожаное лицо скачать торрент
    Техасская резня бензопилой: Кожаное лицо смотреть онлайн
    Cкачать фильм Техасская резня бензопилой: Кожаное лицо бесплатно
    Техасская резня бензопилой: Кожаное лицо скачать торрент в хорошем качестве
    Техасская резня бензопилой: Кожаное лицо смотреть онлайн бесплатно в хорошем качестве


    Вы не можете начинать темы
    Вы не можете отвечать на сообщения
    Вы не можете редактировать свои сообщения
    Вы не можете удалять свои сообщения
    Вы не можете голосовать в опросах
    Вы не можете прикреплять файлы к сообщениям
    Вы можете скачивать файлы