Ссылка на приватное зеркало нашего сайта всего за 1$. Внимание количество ограничено!!!

2 сезон

iTunes

1 сезон

1

2 сезон

2 сезон

iTunes

1 сезон

RePack

30

Ultimate

ВАЖНО

ИГРА 18+

pack

RePack

MK11
pack

Забери бонус

RePack

jed

!!Акция!!

Alien_Rage

RePack

fifa19

RePack

Assassins Creed: Odyssey

RePack

NEED FOR SPEED™ PAYBACK

4 сезон

9 сезон

Бесстыжие 9 сезон

Все сериалы

все сериалы на PB.wtf

RePack

FAR CRY 5
  

Слепая зона / Слепое пятно / Blindspot / Сезон: 3 / Серии: 1-22 из 22 (Марк Пеллингтон) [2017, драма, WEB-DL 720p] MVO [AlexFilm] pb.wtf

Слепая зона через торрент pb.wtf

Размер: 42.62 GB | Добавлен: 2 года 6 мес. назад | Торрент скачан:21 раз
Скачать  

30-10-2017 13:01 Слепая зона Скачать торрент  

Слепая зона / Слепое пятно / BlindspotГод выпуска: 2017
Страна: США
Жанр: драма
Продолжительность: ~ 00:45:00
Перевод: Профессиональный многоголосый |
Субтитры: отсутствуют

Режиссер: Марк Пеллингтон

rating

В ролях:

Джейми Александер, Салливан Степлтон, Одри Эспарза, Роб Браун, Марко Кака, Орелин Гайя, Карл Ли, Ноэль Рамос, Юн-И Чанг, Саманта Риверз Коул

Описание:

В центре сюжета находится потерявшая свою память девушка, которая оказывается в центре расследования после того, как смогла выбраться из брезентового мешка в самом центе Нью-Йорк Сити на Таймс Сквер. Не имея ни малейшего представления о том, кто она такая, девушка не знает, что обозначают многочисленные загадочные татуировки, которыми покрыто все ее тело. Когда выясняется, что татуировки являются чем-то вроде дорожной карты, к делу подключается ФБР.

Качество: WEB-DL 720p
Формат: MKV
Видео кодек: H.264
Аудио кодек: AC3

Видео: MPEG-4 AVC, ~ 5500 Кбит/с, 1280x720
Аудио#1: Русский (AC3, 6 ch, 384 Кбит/с)
Аудио#2: английский (AC3, 6 ch, 384 Кбит/с)
скриншот   скриншот   скриншот  

Общее
Уникальный идентификатор : 182406297791718572690114691782046700489 (0x893A2CD31A93BF8C9B34A892AE94D3C9)
Полное имя : D:\Blindspot - Season 3 (AlexFilm) WEB-DL 720p\Blindspot.s03e01.WEB-DL.720p.Rus.Eng.AlexFilm.mkv
Формат : Matroska
Версия формата : Version 4 / Version 2
Размер файла : 1,92 Гбайт
Продолжительность : 43 м. 6 с.
Общий поток : 6385 Кбит/сек
Название фильма : Blindspot 3x01 @ AlexFilm
Дата кодирования : UTC 2017-10-30 11:01:06
Программа кодирования : mkvmerge v7.1.0 ('Good Love') 64bit built on Jul 27 2014 13:06:55
Библиотека кодирования : libebml v1.3.0 + libmatroska v1.4.1

Видео
Идентификатор : 1
Формат : AVC
Формат/Информация : Advanced Video Codec
Профиль формата : High@L4.1
Параметр CABAC формата : Да
Параметр ReFrames формата : 9 кадров
Идентификатор кодека : V_MPEG4/ISO/AVC
Продолжительность : 43 м. 6 с.
Битрейт : 5490 Кбит/сек
Ширина : 1280 пикселей
Высота : 720 пикселей
Соотношение сторон : 16:9
Режим частоты кадров : Постоянный
Частота кадров : 23,976 (24000/1001) кадра/сек
Цветовое пространство : YUV
Субдискретизация насыщенности : 4:2:0
Битовая глубина : 8 бит
Тип развёртки : Прогрессивная
Бит/(Пиксели*Кадры) : 0.248
Размер потока : 1,65 Гбайт (86%)
Библиотека кодирования : x264 core 148 r2744 b97ae06
Настройки программы : cabac=1 / ref=9 / deblock=1:-3:-3 / analyse=0x3:0x133 / me=umh / subme=10 / psy=1 / psy_rd=1.00:0.00 / mixed_ref=1 / me_range=48 / chroma_me=1 / trellis=2 / 8x8dct=1 / cqm=0 / deadzone=21,11 / fast_pskip=0 / chroma_qp_offset=-2 / threads=12 / lookahead_threads=2 / sliced_threads=0 / nr=0 / decimate=0 / interlaced=0 / bluray_compat=0 / constrained_intra=0 / bframes=9 / b_pyramid=0 / b_adapt=2 / b_bias=0 / direct=3 / weightb=1 / open_gop=0 / weightp=2 / keyint=240 / keyint_min=23 / scenecut=40 / intra_refresh=0 / rc_lookahead=60 / rc=crf / mbtree=0 / crf=17.0 / qcomp=0.60 / qpmin=10 / qpmax=51 / qpstep=4 / vbv_maxrate=62500 / vbv_bufsize=78125 / crf_max=0.0 / nal_hrd=none / filler=0 / ip_ratio=1.40 / pb_ratio=1.30 / aq=3:0.70
Default : Да
Forced : Нет

Аудио #1
Идентификатор : 2
Формат : AC-3
Формат/Информация : Audio Coding 3
Расширение режима : CM (complete main)
Параметр Endianness формата : Big
Идентификатор кодека : A_AC3
Продолжительность : 43 м. 6 с.
Вид битрейта : Постоянный
Битрейт : 384 Кбит/сек
Каналы : 6 каналов
Расположение каналов : Front: L C R, Side: L R, LFE
Частота : 48,0 КГц
Частота кадров : 31,250 кадров/сек (1536 spf)
Метод сжатия : С потерями
Размер потока : 118 Мбайт (6%)
Заголовок : DD5.1 AlexFilm
Язык : Russian
Default : Да
Forced : Нет

Аудио #2
Идентификатор : 3
Формат : AC-3
Формат/Информация : Audio Coding 3
Расширение режима : CM (complete main)
Параметр Endianness формата : Big
Идентификатор кодека : A_AC3
Продолжительность : 43 м. 6 с.
Вид битрейта : Постоянный
Битрейт : 384 Кбит/сек
Каналы : 6 каналов
Расположение каналов : Front: L C R, Side: L R, LFE
Частота : 48,0 КГц
Частота кадров : 31,250 кадров/сек (1536 spf)
Метод сжатия : С потерями
Размер потока : 118 Мбайт (6%)
Заголовок : DD5.1 Original
Язык : English
Default : Нет
Forced : Нет

Внимание! Раздача ведётся путём добавления новых серий; при каждом добавлении создаётся новый торрент. Чтобы начать докачку новой серии, пользователям необходимо сделать следующее:
(1) остановить скачивание,
(2) удалить старый торрент-файл у себя из клиента (старые серии удалять не надо),
(3) скачать новый торрент-файл из раздачи и запустить его у себя в клиенте вместо старого, при этом указать клиенту путь в старую папку, куда и должно происходить скачивание новых серий.
pb.wtf



Скачать Слепая зона через торрент http://s019.radikal.ru/i621/1710/ab/95c8cfbea76a.jpg Скачать фильм Слепая зона через торрент бесплантно в хорошем качестве Описание: В центре сюжета находится потерявшая свою память девушка, которая оказывается в центре расследования после того, как смогла ... 10 10 9
Info! Золотая раздача, скачанное не засчитывается.
Торрент: Зарегистрирован [2018-05-20 11:57] · скачан: 21 раз
Статус: √ проверено
Размер: 42.62 GB
Как cкачать? Как скачать Слепая зона через торрент | qTorrent

% Раздел Тема Автор DL S | L
Зарубежные сериалы [ 11.82 GB ] Слепая зона / Слепое пятно / Blindspot / Сезон: 3 / Серии: 1-22 из 22 [2017 WEB-DLRip] MVO [NewStudio] bober100 Скачать
1 | 0
Зарубежные сериалы [ 31.91 GB ] Слепая зона / Слепое пятно / Blindspot / Сезон: 3 / Серии 1-22 из 22 [2017 WEB-DL 720p] MVO [NewStudio] GEKADOL Скачать
1 | 0
Зарубежные сериалы [ 11.17 GB ] Слепая зона / Слепое пятно / Blindspot / Сезон: 3 / Серии: 1-22 из 22 [2017 WEBRip] MVO [LostFilm] bober100 Скачать
1 | 0
Зарубежные сериалы [ 44.12 GB ] Слепая зона / Слепое пятно / Blindspot / Сезон: 3 / Серии: 1-22 из 22 [2017 WEBRip 720p] MVO [Jaskier] bober100 Скачать
1 | 0
Зарубежные сериалы [ 11.72 GB ] Слепая зона / Слепое пятно / Blindspot / Сезон: 3 / Серии: 1-22 из 22 [2017 WEBRip] MVO [Jaskier] bober100 Скачать
1 | 0
Зарубежные сериалы [ 10.98 GB ] Слепая зона / Слепое пятно / Blindspot / Сезон: 3 / Серии: 1-22 из 22 [2017 WEB-DLRip] MVO [AlexFilm] bober100 Скачать
1 | 0


Последний раз редактировалось: bober100 (2018-05-20 11:57), всего редактировалось 9 раз(а)

28-11-2019 20:33  

Отключить всю рекламу на сайте

21-01-2018 08:22 Слепая зона Скачать торрент  

+10pb.wtf



29-01-2018 01:19 Слепая зона Скачать торрент  

+11pb.wtf



    Дорогой пользователь! Огромная просьба, поблагодарите релизера, оцените раздачу и оставьте свои комментарий, если Вы скачали Слепая зона через торрент бесплатно! Внесите свою лепту в развитие PiratBit!
    Комментировать посты могут только пользователи прошедшие не сложную регистрацию
    Показать сообщения:    

    Слепая зона через торрент
    Скачать бесплатно Слепая зона
    Слепая зона скачать торрент
    Слепая зона смотреть онлайн
    Cкачать фильм Слепая зона бесплатно
    Слепая зона скачать торрент в хорошем качестве
    Слепая зона смотреть онлайн бесплатно в хорошем качестве


    Вы не можете начинать темы
    Вы не можете отвечать на сообщения
    Вы не можете редактировать свои сообщения
    Вы не можете удалять свои сообщения
    Вы не можете голосовать в опросах
    Вы не можете прикреплять файлы к сообщениям
    Вы можете скачивать файлы