Ссылка на приватное зеркало нашего сайта всего за 1$. Внимание количество ограничено!!!

2 сезон

iTunes

1 сезон

1

iTunes

iTunes

iTunes

1 сезон

RePack

30

ИГРА 18+

pack

ВАЖНО

!!Акция!!

Alien_RageХит недели

RePack

MK11
pack

Забери бонус

RePack

jed

!!Акция!!

Alien_Rage

RePack

fifa19

RePack

Assassins Creed: Odyssey

RePack

NEED FOR SPEED™ PAYBACK

4 сезон

9 сезон

Бесстыжие 9 сезон

Все сериалы

все сериалы на PB.wtf

RePack

FAR CRY 5
  

Дом фарфора / Серия 1-8 из 8 / (Олег Асадулин) [2017 г., Драма, мелодрама, SATRip] pb.wtf

Дом фарфора через торрент pb.wtf

Раздают: 1 [ 0 KB/s ]
Размер: 5.88 GB | Добавлен: 2 года 11 мес. назад | Торрент скачан:112 раз
Скачать  

30-10-2017 15:45 Дом фарфора Скачать торрент  

Дом фарфора / Серия 1-8 из 8 /
Год выпуска: 2017
Страна: Россия
Жанр: Драма, мелодрама
Продолжительность: 8 х 00:50:15
Субтитры: Нет

Режиссер: Олег Асадулин

В ролях: Стася Милославская, Валерия Куликова, Анатолий Белый, Игорь Миркурбанов, Юлия Ауг, Илья Антоненко, Никита Волков, Наталия Вдовина, Алексей Вертков, Елена Дробышева, Иван Мамонов, Алексей Поляков, Анна Цуканова-Котт, Валерий Воротынский, Олег Евтеев, Кирилл Новицкий.

Описание: 1982 год. Катя Королева (Стася Милославская) - спортсменка и красавица. Ей прочат успешную карьеру теннисистки, но внезапно она оказывается под следствием по сфабрикованному делу и вынуждена бежать из Белгорода к сестре в Москву. Однако все попытки выпутаться из сложившейся ситуации затягивают ее в еще более глубокую трясину. Старшая сестра Аня (Валерия Куликова) устраивает ее продавщицей в магазин «Дом фарфора», где Катя знакомится с импозантным генералом КГБ Валерием Лужиным (Анатолий Белый). Катя не знает о сотрудничестве сестры и Лужина и новом «задании» Ани – соблазнить и выведать у американского журналиста Грега сведения, при помощи которых Лужин планирует сделать карьеру на Западе. Накануне смерти Брежнева Лужин и Семен Гроссман (Игорь Миркурбанов) - директор «Дома фарфора» и приближенный министра Щелокова, становятся ключевыми фигурами в противостоянии КГБ и МВД.

Качество: SATRip
Формат: AVI
Видео кодек: XviD
Аудио кодек: MP3
Видео: 720x400 (1.80:1), 25 fps, XviD ~1800 kbps
Аудио#1: 48 kHz, MPEG Layer 3, 2 ch, ~128.00 kbps
скриншот   скриншот   скриншот   скриншот  

General
Complete name : H:\релизы.торрентфайл\Дом фарфора(2017)\Dom.farfora.01.[www.riperam.org].avi
Format : AVI
Format/Info : Audio Video Interleave
File size : 724 MiB
Duration : 52mn 15s
Overall bit rate : 1 937 Kbps
Writing application : VirtualDubMod 1.5.10.3 (build 2550/release)
Writing library : VirtualDubMod build 2550/release

Video
ID : 0
Format : MPEG-4 Visual
Format profile : Advanced Simple@L5
Format settings, BVOP : 2
Format settings, QPel : No
Format settings, GMC : No warppoints
Format settings, Matrix : Default (MPEG)
Codec ID : XVID
Codec ID/Hint : XviD
Duration : 52mn 15s
Bit rate : 1 800 Kbps
Width : 720 pixels
Height : 400 pixels
Display aspect ratio : 16:9
Frame rate : 25.000 fps
Color space : YUV
Chroma subsampling : 4:2:0
Bit depth : 8 bits
Scan type : Progressive
Compression mode : Lossy
Bits/(Pixel*Frame) : 0.250
Stream size : 673 MiB (93%)
Writing library : XviD 1.2.1 (UTC 2008-12-04)

Audio
ID : 1
Format : MPEG Audio
Format version : Version 1
Format profile : Layer 3
Codec ID : 55
Codec ID/Hint : MP3
Duration : 52mn 15s
Bit rate mode : Constant
Bit rate : 128 Kbps
Channel(s) : 2 channels
Sampling rate : 48.0 KHz
Compression mode : Lossy
Stream size : 47.8 MiB (7%)
Alignment : Aligned on interleaves
Interleave, duration : 40 ms (1.00 video frame)
Interleave, preload duration : 504 ms
Writing library : LAME3.99r
Encoding settings : -m s -V 4 -q 2 -lowpass 17 -b 128

Внимание! Раздача ведётся путём добавления новых серий; при каждом добавлении создётся новый торрент. Чтобы начать докачку новой серии, пользователям необходимо сделать следующее:
  • Остановить скачивание,
  • Удалить старый торрент у себя из клиента (старые серии удалять не надо),
  • Скачать новый торрент и запустить его у себя в клиенте вместо старого, при этом указать клиенту путь в старую папку куда и должно происходить скачивание новых серий.
Ваш клиент при этом должен произвести хеширование (проверку) старой папки (если не производит сам - помогите ему сделать это), и будет докачивать только те серии которых у вас ещё нет. Старые серии при этом не удаляются, а продолжают раздаваться!

Eсли вы уже удалили старые серии, то предотвратить повторную закачку старых серий можно, отжав галочку в соответсвующих местах при запуске нового торрента. По возможности, желательно не удалять старые серии как можно дольше чтобы релизёр не столько продолжал раздавать старые серии, а смог сконцентрироваться на новых.
pb.wtf



Скачать Дом фарфора через торрент http://pic1.kartinco.top/images/11/kjq74.jpg Скачать фильм Дом фарфора через торрент бесплантно в хорошем качестве Описание: 1982 год. Катя Королева (Стася Милославская) - спортсменка и красавица. Ей прочат успешную карьеру теннисистки, но внезапно она ... 10 10 6
Торрент: Зарегистрирован [2017-11-02 13:59] · скачан: 112 раз
Статус: √ проверено
Размер: 5.88 GB
Как cкачать? Как скачать Дом фарфора через торрент | qTorrent

% Раздел Тема Автор DL S | L
Наши сериалы [ 5.04 GB ] Дом фарфора / Серии: 1-8 из 8 [2017 SATRip-AVC] aleksan55 Скачать
1 | 0


Последний раз редактировалось: oleg8 (2017-11-02 13:59), всего редактировалось 1 раз

28-11-2019 20:33  

Отключить всю рекламу на сайте

    Дорогой пользователь! Огромная просьба, поблагодарите релизера, оцените раздачу и оставьте свои комментарий, если Вы скачали Дом фарфора через торрент бесплатно! Внесите свою лепту в развитие PiratBit!
    Комментировать посты могут только пользователи прошедшие не сложную регистрацию
    Показать сообщения:    

    Дом фарфора через торрент
    Скачать бесплатно Дом фарфора
    Дом фарфора скачать торрент
    Дом фарфора смотреть онлайн
    Cкачать фильм Дом фарфора бесплатно
    Дом фарфора скачать торрент в хорошем качестве
    Дом фарфора смотреть онлайн бесплатно в хорошем качестве


    Вы не можете начинать темы
    Вы не можете отвечать на сообщения
    Вы не можете редактировать свои сообщения
    Вы не можете удалять свои сообщения
    Вы не можете голосовать в опросах
    Вы не можете прикреплять файлы к сообщениям
    Вы можете скачивать файлы