Ссылка на приватное зеркало нашего сайта всего за 1$. Внимание количество ограничено!!!

2 сезон

iTunes

1 сезон

1

2 сезон

2 сезон

iTunes

1 сезон

RePack

30

Ultimate

ВАЖНО

ИГРА 18+

pack

RePack

MK11
pack

Забери бонус

RePack

jed

!!Акция!!

Alien_Rage

RePack

fifa19

RePack

Assassins Creed: Odyssey

RePack

NEED FOR SPEED™ PAYBACK

4 сезон

9 сезон

Бесстыжие 9 сезон

Все сериалы

все сериалы на PB.wtf

RePack

FAR CRY 5
  

Граница / Frontier / Сезон 2 / Серии 1-6 из 6 (Брэд Пэйтон, Джон Ватчер, Келли Мэкин) [2017, Историческая драма, приключения, HDTVRip ] MVO [Good People] pb.wtf

Граница через торрент pb.wtf

Размер: 3.26 GB | Добавлен: 2 года 11 мес. назад | Торрент скачан:17 раз
Скачать  

30-10-2017 20:18 Граница Скачать торрент  

Граница / FrontierИнформация о фильме:

✦ Год выпуска: 2017
✦ Страна: Канада
✦ Жанр: Историческая драма, приключения
✦ Продолжительность: ~ 00:45:00
✦ Перевод: Профессиональный (многоголосый) - Good People
✦ Субтитры: отсутствуют

✦ Режиссер: Брэд Пэйтон, Джон Ватчер, Келли Мэкин

rating

В ролях:

Диана Бентли, Бриэнн Хилл, Джейсон Момоа, Джессика Мэттен, Пол Ивэн Уилсон, Майкл Патрик, Уильям Белло, Пол Фауте, Эван Джонигкейт, Кристиан МакКэй, Лайла Портер Фоллоус и др.

Описание:

Сериал расскажет о жестокой и кровавой борьбе за богатство и Влacть в торговле пушниной на просторах Северной Америки в XVIII веке. Бизнес приходится вести в очень сложных условиях жестокого противостояния коренных племён и понаехавших на континент европейцев.

Информация о файле:

✦ Качество: HDTVRip
✦ Формат: AVI
✦ Видео кодек: DivX
✦ Аудио кодек: MP3

✦ Видео: ~ 1400 kbps, 704x352, 23.976 fps
✦ Аудио#1: Ru: mp3, 48.0 KHz, 2 ch, 128 kbps
✦ Аудио#2: En: mp3, 48.0 KHz, 2 ch, 128 kbps


скриншот   скриншот   скриншот  

Общее
Полное имя : D:\Frontier. Season 2 (HDTVRip l 400p l Good People)\Frontier.S02E01.HDTVRip.Rus.Eng.GoodPeople.avi
Формат : AVI
Формат/Информация : Audio Video Interleave
Размер файла : 550 Мбайт
Продолжительность : 45 м. 27 с.
Общий поток : 1693 Кбит/сек
Программа кодирования : VirtualDubMod 1.5.10.3 | www.virtualdub-fr.org || (build 2550/release)
Библиотека кодирования : VirtualDubMod build 2550/release

Видео
Идентификатор : 0
Формат : MPEG-4 Visual
Профиль формата : Advanced Simple@L5
Параметр BVOP формата : 1
Параметр QPel формата : Нет
Параметр GMC формата : Без точки перехода
Параметр матрицы формата : Default (MPEG)
Идентификатор кодека : XVID
Идентификатор кодека/Подсказка : XviD
Продолжительность : 45 м. 27 с.
Битрейт : 1423 Кбит/сек
Ширина : 704 пикселя
Высота : 352 пикселя
Соотношение сторон : 2,000
Частота кадров : 23,976 (23976/1000) кадра/сек
Цветовое пространство : YUV
Субдискретизация насыщенности : 4:2:0
Битовая глубина : 8 бит
Тип развёртки : Прогрессивная
Метод сжатия : С потерями
Бит/(Пиксели*Кадры) : 0.239
Размер потока : 463 Мбайт (84%)
Библиотека кодирования : XviD 73

Аудио #1
Идентификатор : 1
Формат : MPEG Audio
Версия формата : Version 1
Профиль формата : Layer 3
Режим : Joint stereo
Расширение режима : MS Stereo
Идентификатор кодека : 55
Идентификатор кодека/Подсказка : MP3
Продолжительность : 45 м. 27 с.
Вид битрейта : Постоянный
Битрейт : 128 Кбит/сек
Каналы : 2 канала
Частота : 48,0 КГц
Метод сжатия : С потерями
Размер потока : 41,6 Мбайт (8%)
Выравнивание : Соединение по промежуткам
Продолжительность промежутка : 42 мс. (1,00 видеокадр)
Время предзагрузки промежутка : 504 мс.

Аудио #2
Идентификатор : 2
Формат : MPEG Audio
Версия формата : Version 1
Профиль формата : Layer 3
Режим : Joint stereo
Расширение режима : MS Stereo
Идентификатор кодека : 55
Идентификатор кодека/Подсказка : MP3
Продолжительность : 45 м. 27 с.
Вид битрейта : Постоянный
Битрейт : 128 Кбит/сек
Каналы : 2 канала
Частота : 48,0 КГц
Метод сжатия : С потерями
Размер потока : 41,6 Мбайт (8%)
Выравнивание : Соединение по промежуткам
Продолжительность промежутка : 42 мс. (1,00 видеокадр)
Время предзагрузки промежутка : 504 мс.

Когда раздача ведётся путём добавления новых серий, при каждом добавлении создётся новый торрент. Чтобы начать докачку новой серии, пользователям необходимо сделать следующее:
(1) остановить скачивание,
(2) удалить старый торрент у себя из клиента (старые серии удалять не надо),
(3) скачать новый торрент и запустить его у себя в клиенте вместо старого, при этом указать клиенту путь в старую папку, куда и должно происходить скачивание новых серий.
Ваш клиент при этом должен произвести хеширование (проверку) старой папки (если не производит сам - помогите ему сделать это), и будет докачивать только те серии, которых у вас ещё нет. Старые серии при этом не удаляются, а продолжают раздаваться!
Eсли вы уже удалили старые серии, то предотвратить повторную закачку старых серий можно, отжав галочку в соответсвующих местах при запуске нового торрента. По возможности, желательно не удалять старые серии как можно дольше, чтобы релизёр не столько продолжал раздавать старые серии, а смог сконцентрироваться на новых.
pb.wtf



Скачать Граница через торрент http://pic1.kartinco.top/images/11/rzeg1.jpg Скачать фильм Граница через торрент бесплантно в хорошем качестве Описание: Сериал расскажет о жестокой и кровавой борьбе за богатство и Влacть в торговле пушниной на просторах Северной Америки в XVIII ... 10 10 4
Торрент: Зарегистрирован [2017-12-15 20:23] · скачан: 17 раз
Статус: √ проверено
Размер: 3.26 GB
Как cкачать? Как скачать Граница через торрент | qTorrent

% Раздел Тема Автор DL S | L
Зарубежные сериалы [ 9.46 GB ] Граница / Frontier / Сезон 2 / Серии 1-6 из 6 [2017 Историческая WEBRip 1080p] MVO [Jaskier] bober100 Скачать
1 | 0
Зарубежные сериалы [ 3.52 GB ] Граница / Frontier / Сезон 2 / Серии 1-6 из 6 [2017 Историческая WEBRip] MVO [Jaskier] bober100 Скачать
1 | 0
Зарубежные сериалы [ 5.39 GB ] Граница / Frontier / Сезон 2 / Серии 1-6 из 6 [2017 Историческая HDTVRip 720p] MVO [Good People] bober100 Скачать
1 | 0
Зарубежные сериалы [ 3.22 GB ] Граница / Рубеж / Frontier / Сезон: 2 / Серии 1-6 из 6 [2017 Историческая HDTVRip] [MVO] killermax2013 Скачать
1 | 0
Зарубежные сериалы [ 9.46 GB ] Граница / Frontier / Сезон 2 / Серии 1-6 из 6 [2017 Историческая WEB-DL 1080p] [MVO] killermax2013 Скачать
1 | 0
Зарубежные сериалы [ 4.45 GB ] Граница / Рубеж / Frontier / Сезон: 2 / Серии 1-5 из 6 [2017 HDTVRip 720p] MVO [BaibaKo] GEKADOL Скачать
1 | 0
Зарубежные сериалы [ 5.39 GB ] Граница / Рубеж / Frontier / Сезон: 2 / Серии 1-6 из 6 [2017 Историческая HDTVRip 720p] [MVO] killermax2013 Скачать
1 | 0

28-11-2019 20:33  

Отключить всю рекламу на сайте

    Дорогой пользователь! Огромная просьба, поблагодарите релизера, оцените раздачу и оставьте свои комментарий, если Вы скачали Граница через торрент бесплатно! Внесите свою лепту в развитие PiratBit!
    Комментировать посты могут только пользователи прошедшие не сложную регистрацию
    Показать сообщения:    

    Граница через торрент
    Скачать бесплатно Граница
    Граница скачать торрент
    Граница смотреть онлайн
    Cкачать фильм Граница бесплатно
    Граница скачать торрент в хорошем качестве
    Граница смотреть онлайн бесплатно в хорошем качестве


    Вы не можете начинать темы
    Вы не можете отвечать на сообщения
    Вы не можете редактировать свои сообщения
    Вы не можете удалять свои сообщения
    Вы не можете голосовать в опросах
    Вы не можете прикреплять файлы к сообщениям
    Вы можете скачивать файлы