Ссылка на приватное зеркало нашего сайта всего за 1$. Внимание количество ограничено!!!

2 сезон

iTunes

1 сезон

1

iTunes

iTunes

iTunes

1 сезон

RePack

30

ИГРА 18+

pack

ВАЖНО

!!Акция!!

Alien_RageХит недели

RePack

MK11
pack

Забери бонус

RePack

jed

!!Акция!!

Alien_Rage

RePack

fifa19

RePack

Assassins Creed: Odyssey

RePack

NEED FOR SPEED™ PAYBACK

4 сезон

9 сезон

Бесстыжие 9 сезон

Все сериалы

все сериалы на PB.wtf

RePack

FAR CRY 5
  

Судороги / Shivers (Дэвид Кроненберг) [1975, ужасы, фантастика, BDRip 720p by msltel] DVO, AVO pb.wtf

Судороги через торрент pb.wtf

Размер: 4.43 GB | Добавлен: 2 года 11 мес. назад | Торрент скачан:63 раза
Скачать  

31-10-2017 06:04 Судороги Скачать торрент  

Название: Судороги
Оригинальное название: Shivers
Год выпуска: 1975
Страна: Канада
Жанр: ужасы, фантастика
Продолжительность: 01:27:54
Перевод: профессиональный двухголосый, авторский

Режиссер: Дэвид Кроненберг
В ролях: Пол Хэмптон, Джо Силвер, Линн Лаури, Аллан Колмэн, Сьюзен Питри, Барбара Стил, Рональд Млодзик, Бэрри Балдаро, Камил Дюшарм, Анна Поснанска

О фильме: В жилом массиве на острове около Монреаля безумный учёный тестирует выведенного им генетически спроектированного паразита на своей любовнице. Он полагает, что человек — это животное, которое думает слишком много, и вывел паразита, чтобы увеличить у людей уровень насилия и сексуального желания. Но происходит бесконтрольное распространение инфекции, и скоро другие обитатели жилого комплекса заражаются паразитами. Очень быстро они превращаются в жестоких сексуальных маньяков...



Качество: BDRip 720p
Формат: MKV
Видео: MPEG-4 AVC, 6638 Кбит/с, 1280x720
Аудио 1: русский, AC3, 192 kbps, 2 ch [профессиональный двухголосый]
Аудио 2: русский, AC3, 192 kbps, 2 ch [авторский, Сергей Визгунов]
Аудио 3: английский, AC3, 192 kbps, 1 ch, 48 kHz [оригинал]
Субтитры 1: русские
Субтитры 2: английские
Неименованные главы/чаптеры.
Общее
Уникальный идентификатор : 175823149301631590134083361931216749351 (0x84464E8B78660F0BB6D4110EAC0F0327)
Полное имя : D:\Video\Судороги.1975.BDRip.720p by msltel.mkv
Формат : Matroska
Версия формата : Version 4 / Version 2
Размер файла : 4,43 Гбайт
Продолжительность : 1 ч. 27 м.
Общий поток : 7216 Кбит/сек
Название фильма : Rip by msltel
Дата кодирования : UTC 2017-10-31 02:09:38
Программа кодирования : mkvmerge v8.2.0 ('World of Adventure') 64bit
Библиотека кодирования : libebml v1.3.1 + libmatroska v1.4.2

Видео
Идентификатор : 1
Формат : AVC
Формат/Информация : Advanced Video Codec
Профиль формата : High@L4.1
Параметр CABAC формата : Да
Параметр RefFrames формата : 9 кадров
Идентификатор кодека : V_MPEG4/ISO/AVC
Продолжительность : 1 ч. 27 м.
Битрейт : 6638 Кбит/сек
Ширина : 1280 пикселей
Высота : 720 пикселей
Соотношение сторон : 16:9
Режим частоты кадров : Постоянный
Частота кадров : 23,976 (24000/1001) кадра/сек
Цветовое пространство : YUV
Субдискретизация насыщенности : 4:2:0
Битовая глубина : 8 бит
Тип развёртки : Прогрессивная
Бит/(Пиксели*Кадры) : 0.300
Размер потока : 4,08 Гбайт (92%)
Библиотека кодирования : x264 core 146 r2538 121396c
Настройки программы : cabac=1 / ref=9 / deblock=1:-3:-2 / analyse=0x3:0x113 / me=umh / subme=11 / psy=1 / psy_rd=1.00:0.15 / mixed_ref=1 / me_range=32 / chroma_me=1 / trellis=2 / 8x8dct=1 / cqm=0 / deadzone=21,11 / fast_pskip=0 / chroma_qp_offset=-3 / threads=6 / lookahead_threads=1 / sliced_threads=0 / nr=0 / decimate=1 / interlaced=0 / bluray_compat=0 / constrained_intra=0 / bframes=14 / b_pyramid=2 / b_adapt=2 / b_bias=0 / direct=1 / weightb=1 / open_gop=0 / weightp=2 / keyint=230 / keyint_min=23 / scenecut=40 / intra_refresh=0 / rc_lookahead=40 / rc=crf / mbtree=0 / crf=20.1 / qcomp=0.60 / qpmin=0 / qpmax=69 / qpstep=4 / vbv_maxrate=62500 / vbv_bufsize=78125 / crf_max=0.0 / nal_hrd=none / filler=0 / ip_ratio=1.40 / pb_ratio=1.30 / aq=1:1.00
Язык : English
Default : Да
Forced : Нет

Аудио #1
Идентификатор : 2
Формат : AC-3
Формат/Информация : Audio Coding 3
Параметр Endianness формата : Big
Идентификатор кодека : A_AC3
Продолжительность : 1 ч. 27 м.
Вид битрейта : Постоянный
Битрейт : 192 Кбит/сек
Каналы : 2 канала
Расположение каналов : Front: L R
Частота : 48,0 КГц
Частота кадров : 31,250 кадров/сек (1536 SPF)
Битовая глубина : 16 бит
Метод сжатия : С потерями
Размер потока : 121 Мбайт (3%)
Заголовок : DVO
Язык : Russian
ServiceKind/String : Complete Main
Default : Да
Forced : Нет

Аудио #2
Идентификатор : 3
Формат : AC-3
Формат/Информация : Audio Coding 3
Параметр Endianness формата : Big
Идентификатор кодека : A_AC3
Продолжительность : 1 ч. 27 м.
Вид битрейта : Постоянный
Битрейт : 192 Кбит/сек
Каналы : 2 канала
Расположение каналов : Front: L R
Частота : 48,0 КГц
Частота кадров : 31,250 кадров/сек (1536 SPF)
Битовая глубина : 16 бит
Метод сжатия : С потерями
Размер потока : 121 Мбайт (3%)
Заголовок : Сергей Визгунов
Язык : Russian
ServiceKind/String : Complete Main
Default : Нет
Forced : Нет

Аудио #3
Идентификатор : 4
Формат : AC-3
Формат/Информация : Audio Coding 3
Параметр Endianness формата : Big
Идентификатор кодека : A_AC3
Продолжительность : 1 ч. 27 м.
Вид битрейта : Постоянный
Битрейт : 192 Кбит/сек
Каналы : 1 канал
Расположение каналов : Front: C
Частота : 48,0 КГц
Частота кадров : 31,250 кадров/сек (1536 SPF)
Битовая глубина : 16 бит
Метод сжатия : С потерями
Размер потока : 121 Мбайт (3%)
Заголовок : original
Язык : English
ServiceKind/String : Complete Main
Default : Нет
Forced : Нет

Текст #1
Идентификатор : 5
Формат : UTF-8
Идентификатор кодека : S_TEXT/UTF8
Идентификатор кодека/Информация : UTF-8 Plain Text
Продолжительность : 1 ч. 26 м.
Битрейт : 57 бит/сек
ElementCount : 493
Размер потока : 36,2 Кбайт (0%)
Заголовок : русские
Язык : Russian
Default : Нет
Forced : Нет

Текст #2
Идентификатор : 6
Формат : UTF-8
Идентификатор кодека : S_TEXT/UTF8
Идентификатор кодека/Информация : UTF-8 Plain Text
Продолжительность : 1 ч. 26 м.
Битрейт : 35 бит/сек
ElementCount : 570
Размер потока : 22,5 Кбайт (0%)
Заголовок : английские
Язык : English
Default : Нет
Forced : Нет

Меню
00:00:00.000 : en:Chapter 1
00:07:39.541 : en:Chapter 2
00:13:00.863 : en:Chapter 3
00:20:30.019 : en:Chapter 4
00:28:55.482 : en:Chapter 5
00:35:21.536 : en:Chapter 6
00:43:31.817 : en:Chapter 7
00:51:55.277 : en:Chapter 8
00:58:40.432 : en:Chapter 9
01:04:37.414 : en:Chapter 10
01:11:05.594 : en:Chapter 11
01:19:45.363 : en:Chapter 12
pb.wtf



Скачать Судороги через торрент http://s019.radikal.ru/i629/1710/f5/b943beb01266.jpg Скачать фильм Судороги через торрент бесплантно в хорошем качестве О фильме: В жилом массиве на острове около Монреаля безумный учёный тестирует выведенного им генетически спроектированного паразита на ... 10 10 6
Info! Золотая раздача, скачанное не засчитывается.
Торрент: Зарегистрирован [2017-10-31 06:04] · скачан: 63 раз
Статус: √ проверено
Размер: 4.43 GB
Как cкачать? Как скачать Судороги через торрент | qTorrent

% Раздел Тема Автор DL S | L
Фильмы [HD 720p, 1080p] (Хороший звук DUB, MVO) [ 11.21 GB ] Судороги / Shivers [1975 BDRip 1080p by msltel] DVO AVO msltel Скачать
1 | 0

28-11-2019 20:33  

Отключить всю рекламу на сайте

    Дорогой пользователь! Огромная просьба, поблагодарите релизера, оцените раздачу и оставьте свои комментарий, если Вы скачали Судороги через торрент бесплатно! Внесите свою лепту в развитие PiratBit!
    Комментировать посты могут только пользователи прошедшие не сложную регистрацию
    Показать сообщения:    

    Судороги через торрент
    Скачать бесплатно Судороги
    Судороги скачать торрент
    Судороги смотреть онлайн
    Cкачать фильм Судороги бесплатно
    Судороги скачать торрент в хорошем качестве
    Судороги смотреть онлайн бесплатно в хорошем качестве


    Вы не можете начинать темы
    Вы не можете отвечать на сообщения
    Вы не можете редактировать свои сообщения
    Вы не можете удалять свои сообщения
    Вы не можете голосовать в опросах
    Вы не можете прикреплять файлы к сообщениям
    Вы можете скачивать файлы