новый адрес
Мега распродажа FORZA HORIZON 4 ULTIMATE+ВСЕ DLC+ОНЛАЙН всего за 499р. 349 руб. (супер цена). Внимание количество ограничено!!!

iTunes

1+1

iTunes

мы

iTunes

1

iTunes

Чернобыль

iTunes

Ральф против интернета

Лицензия

ПШазам

Лицензия

Игра престолов

Лицензия

30
pack

ВАЖНО

!!Акция!!

Alien_RageХит недели

RePack

Resident Evil 21

ИГРА 18+

pack

RePack

Metro:Exodus

!!Акция!!

Alien_Rage

RePack

fifa19

RePack

Assassins Creed: Odyssey

RePack

NEED FOR SPEED™ PAYBACK

3 сезон

9 сезон

Бесстыжие 9 сезон

Все сериалы

все сериалы на PB.wtf

RePack

FAR CRY 5
Ребята, катастрофически не хватает 1900р. для оплаты серверов за Октябрь (всвязи с блокировками трафик упал в 3 раза), 1-2р., выручайте.
  

Сборник короткометражных фильмов. Арменфильм (Арман Манарян / Дмитрий Кесаянц / Амасий Мартиросян / Геннадий Мелконян) [1959-1980, короткометражка, комедия, DVDRip от AVP Studio] pb.wtf

Сборник короткометражных фильмов. Арменфильм через торрент pb.wtf

Размер: 1.09 GB | Добавлен: 2 года назад | Торрент скачан:28 раз
Скачать  

31-10-2017 10:01 Сборник короткометражных фильмов. Арменфильм Скачать торрент  

Сборник короткометражных фильмов. Арменфильм
Страна: СССР
Производство: Арменфильм

Жанр: короткометражка, комедия
Год выпуска: 1959
Продолжительность: 01:19:06 (00:20:33 + 00:20:15 + 00:20:37 + 00:17:41)

Перевод: Не требуется
Cубтитры: нет
Оригинальная аудиодорожка: русский

Режиссер: Арман Манарян / Дмитрий Кесаянц / Амасий Мартиросян / Геннадий Мелконян

В ролях:
01-99 1959
Фрунзик Мкртчян, Мурад Костанян, Арман Котикян, Анатолий Торгомян, Лилия Оганесян, Георгий Чепчян, Джемма Сарибекян, Аветик Джрагацпанян, Татул Дилакян, Артемий Айрапетян, Арам Амирбекян, Маис Карагезян...
Печёнка 1962
Грачья Нерсесян, Цолак Америкян, Арман Котикян, Григорий Сандалджян, Маргарита Мурадян, Вардуш Степанян, Аркадий (Аршавир) Тер-Казарян...
Хозяин и слуга 1963
Фаддей Сарьян, Фрунзе Мкртчян, Сос Саркисян...
Шелковица 1980
Размик Ароян, Леонард Саркисов, Тамара Оганесян, Элеонора Петросян...

Описание:
01-99 1959
Комедия недоразумений, происходящих по вине пьянчужки Гарсевана.
Печёнка 1962
Экранизация одноименного рассказа Атрпета.
О том, в какой кошмар вылилась "благотворительность" богача, купившего как-то говяжью печенку для семьи бедняка.
Хозяин и слуга 1963
Экранизация одноименной сказки Ов.Туманяна.
Как находчивый слуга перехитрил своего скупого хозяина.
Шелковица 1980
По рассказу З.Халафяна.
Две многодетные семьи живут по соседству. Объединяет и одновременно разделяет их большое тутовое дерево - источник их общих радостей и неурядиц…

Источник: DVD5 R5
Качество видео: DVDRip
Формат видео: AVI

Видео: 704x528 (4:3), 25 fps, XviD ~ 1770 kbps avg, 0.190 bit/pixel
Аудио: 48 kHz, Dolby Digital AC3 2.0, 192 kbps

Раздача от:
Общее
Полное имя : Sbornik.korotkometrazhnyh.filmov.Armenfilm.1959.DVDRip_[New-team]_by_AVP_Studio.avi
Формат : AVI
Формат/Информация : Audio Video Interleave
Размер файла : 286 Мбайт
Продолжительность : 20 м. 15 с.
Общий поток : 1971 Кбит/сек
Программа кодирования : VirtualDubMod 1.5.10.3 | www.virtualdub-fr.org || (build 2550/release)
Библиотека кодирования : VirtualDubMod build 2550/release

Видео
Идентификатор : 0
Формат : MPEG-4 Visual
Профиль формата : Advanced Simple@L5
Параметр BVOP формата : 1
Параметр QPel формата : Нет
Параметр GMC формата : Без точки перехода
Параметр матрицы формата : Выборочная
Идентификатор кодека : XVID
Идентификатор кодека/Подсказка : XviD
Продолжительность : 20 м. 15 с.
Битрейт : 1770 Кбит/сек
Ширина : 704 пикселя
Высота : 528 пикселей
Соотношение сторон : 4:3
Частота кадров : 25,000 кадров/сек
Цветовое пространство : YUV
Субдискретизация насыщенности : 4:2:0
Битовая глубина : 8 бит
Тип развёртки : Прогрессивная
Метод сжатия : С потерями
Бит/(Пиксели*Кадры) : 0.190
Размер потока : 256 Мбайт (90%)
Библиотека кодирования : XviD 73

Аудио
Идентификатор : 1
Формат : AC-3
Формат/Информация : Audio Coding 3
Параметр Endianness формата : Big
Идентификатор кодека : 2000
Продолжительность : 20 м. 15 с.
Вид битрейта : Постоянный
Битрейт : 192 Кбит/сек
Каналы : 2 канала
Расположение каналов : Front: L R
Частота : 48,0 КГц
Частота кадров : 31,250 кадров/сек (1536 SPF)
Битовая глубина : 16 бит
Метод сжатия : С потерями
Размер потока : 27,8 Мбайт (10%)
Выравнивание : Разделение по промежуткам
Продолжительность промежутка : 40 мс. (1,00 видеокадр)
Время предзагрузки промежутка : 500 мс
pb.wtf



Скачать Сборник короткометражных фильмов. Арменфильм через торрент http://s018.radikal.ru/i521/1710/f8/dc0a8e9373db.png Скачать фильм Сборник короткометражных фильмов. Арменфильм через торрент бесплантно в хорошем качестве Описание:01-99 1959Комедия недоразумений, происходящих по вине пьянчужки Гарсевана.Печёнка 1962Экранизация одноименного рассказа Атрпета.О ... 10 10 2
Info! Золотая раздача, скачанное не засчитывается.
Торрент: Зарегистрирован [2017-10-31 10:01] · скачан: 28 раз
Статус: √ проверено
Размер: 1.09 GB
Как cкачать? Как скачать Сборник короткометражных фильмов. Арменфильм через торрент | qTorrent

% Раздел Тема Автор DL S | L
Кино СССР [ 1.09 GB ] Сборник короткометражных фильмов. Арменфильм [1959-1980 короткометражка DVDRip-AVC от AVP Studio] AVP Studio Скачать
1 | 0


>> Регистрируемся здесь <<






Отзывы и комментарии о схеме читаем и пишем здесь: ---> Отзывы и комментарии о схеме

Новые благодарочки в телеграм довольных пользователей:
скриншот   скриншот   скриншот   скриншот   скриншот
    Дорогой пользователь! Огромная просьба, поблагодарите релизера, оцените раздачу и оставьте свои комментарий, если Вы скачали Сборник короткометражных фильмов. Арменфильм через торрент бесплатно! Внесите свою лепту в развитие PiratBit!
    Комментировать посты могут только пользователи прошедшие не сложную регистрацию
    Показать сообщения:    

    Сборник короткометражных фильмов. Арменфильм через торрент
    Скачать бесплатно Сборник короткометражных фильмов. Арменфильм
    Сборник короткометражных фильмов. Арменфильм скачать торрент
    Сборник короткометражных фильмов. Арменфильм смотреть онлайн
    Cкачать фильм Сборник короткометражных фильмов. Арменфильм бесплатно
    Сборник короткометражных фильмов. Арменфильм скачать торрент в хорошем качестве
    Сборник короткометражных фильмов. Арменфильм смотреть онлайн бесплатно в хорошем качестве


    Вы не можете начинать темы
    Вы не можете отвечать на сообщения
    Вы не можете редактировать свои сообщения
    Вы не можете удалять свои сообщения
    Вы не можете голосовать в опросах
    Вы не можете прикреплять файлы к сообщениям
    Вы можете скачивать файлы