Ссылка на приватное зеркало нашего сайта всего за 1$. Внимание количество ограничено!!!

2 сезон

iTunes

1 сезон

1

2 сезон

2 сезон

iTunes

1 сезон

RePack

30

Ultimate

ВАЖНО

ИГРА 18+

pack

RePack

MK11
pack

Забери бонус

RePack

jed

!!Акция!!

Alien_Rage

RePack

fifa19

RePack

Assassins Creed: Odyssey

RePack

NEED FOR SPEED™ PAYBACK

4 сезон

9 сезон

Бесстыжие 9 сезон

Все сериалы

все сериалы на PB.wtf

RePack

FAR CRY 5
  

Реальная белка 2 / The Nut Job 2: Nutty by Nature (Кэллан Брункер) [2017 г., мультфильм, комедия, приключения, семейный, WEB-DL 720p] [ENG] pb.wtf

Реальная белка 2 через торрент pb.wtf

Размер: 2.78 GB | Добавлен: 3 года 1 мес. назад | Торрент скачан:39 раз
Скачать  

31-10-2017 11:39 Реальная белка 2 Скачать торрент  

Реальная белка 2 / The Nut Job 2: Nutty by Nature
«Get ready. Get set. Get nuts!»

Год выхода: 2017
Страна: Канада, Корея Южная, США
Жанр: мультфильм, комедия, приключения, семейный
Продолжительность: 01:31:04
Перевод: Отсутствует ! [английский оригинал]
Субтитры: Отсутствуют

Режиссер: Кэллан Брункер

В ролях: Уилл Арнетт, Кэтрин Хайгл, Майя Рудольф, Джеки Чан, Изабела Монер, Петер Стормаре, Бобби Каннавале, Бобби Мойнахан, Джефф Данэм, Габриэль Иглесиас

О фильме:В продолжении веселых хвостатых приключений белке Злюку и его друзьям снова нужно действовать сообща. На сей раз - чтобы спасти свой дом: мэр города задумал вырубить их парк и построить на его месте бездушные аттракционы... К счастью, у Злюка и других любителей арахиса есть план, не последняя роль в котором отведена новым друзьям наших героев - белым мышам под предводительством мудрого мистера Фэнга.



Качество: WEB-DL 720p
Формат: MKV
Видео кодек: AVC
Аудио кодек: AC3
Видео: 1280x688, 23.976 fps, ~4363 kbps avg
Аудио: 48 kHz, AC3 Dolby Digital, 6 ch, ~384 kbps
General
Unique ID : 229958542841549866151214164571932901638 (0xAD0067844F02E025BEFCE93DE3C4C106)
Complete name : E:\The Nut Job 2 Nutty by Nature.2017.720p.WEB-DL.H264.AC3-EVO[EtHD]\The Nut Job 2 Nutty by Nature.2017.720p.WEB-DL.H264.AC3-EVO[EtHD].mkv
Format : Matroska
Format version : Version 4 / Version 2
File size : 2.78 GiB
Duration : 1 h 31 min
Overall bit rate : 4 363 kb/s
Movie name : EVO
Encoded date : UTC 2017-10-31 08:04:06
Writing application : mkvmerge v6.7.0 ('Back to the Ground') 64bit built on Jan 8 2014 15:10:52
Writing library : libebml v1.3.0 + libmatroska v1.4.1

Video
ID : 2
Format : AVC
Format/Info : Advanced Video Codec
Format profile : High@L3.1
Format settings : 2 Ref Frames
Format settings, CABAC : No
Format settings, RefFrames : 2 frames
Codec ID : V_MPEG4/ISO/AVC
Duration : 1 h 31 min
Bit rate : 3 892 kb/s
Width : 1 280 pixels
Height : 688 pixels
Display aspect ratio : 1.85:1
Frame rate mode : Constant
Frame rate : 23.976 FPS
Color space : YUV
Chroma subsampling : 4:2:0
Bit depth : 8 bits
Scan type : Progressive
Bits/(Pixel*Frame) : 0.184
Stream size : 2.48 GiB (89%)
Language : English
Default : Yes
Forced : No
Color range : Limited
Color primaries : BT.709
Transfer characteristics : BT.709
Matrix coefficients : BT.709

Audio
ID : 1
Format : AC-3
Format/Info : Audio Coding 3
Format settings, Endianness : Big
Codec ID : A_AC3
Duration : 1 h 31 min
Bit rate mode : Constant
Bit rate : 384 kb/s
Channel(s) : 6 channels
Channel positions : Front: L C R, Side: L R, LFE
Sampling rate : 48.0 kHz
Frame rate : 31.250 FPS (1536 SPF)
Bit depth : 16 bits
Compression mode : Lossy
Stream size : 251 MiB (9%)
Language : English
Service kind : Complete Main
Default : Yes
Forced : No

Menu
00:00:00.000 : en:1
00:03:51.189 : en:2
00:08:23.044 : en:3
00:11:14.715 : en:4
00:15:13.036 : en:5
00:21:44.635 : en:6
00:26:15.113 : en:7
00:29:12.832 : en:8
00:34:01.787 : en:9
00:37:22.362 : en:10
00:42:35.508 : en:11
00:48:19.894 : en:12
00:52:10.040 : en:13
00:55:54.723 : en:14
01:02:20.066 : en:15
01:05:40.349 : en:16
01:08:31.645 : en:17
01:13:09.089 : en:18
01:18:31.035 : en:19
01:21:08.525 : en:20
скриншот  скриншот  скриншот  
pb.wtf



Скачать Реальная белка 2 через торрент http://s010.youpic.su/pictures/1503439200/61bd90361be0f4a45d29233ce3646e96.png Скачать фильм Реальная белка 2 через торрент бесплантно в хорошем качестве О фильме:В продолжении веселых хвостатых приключений белке Злюку и его друзьям снова нужно действовать сообща. На сей раз - чтобы спасти ... 8.5 10 6
Торрент: Зарегистрирован [2017-10-31 11:39] · скачан: 39 раз
Статус: √ проверено
Размер: 2.78 GB
Как cкачать? Как скачать Реальная белка 2 через торрент | qTorrent

% Раздел Тема Автор DL S | L
3D Мультфильмы [ 11.96 GB ] Реальная белка 2 в 3Д / The Nut Job 2: Nutty by Nature 3D [2017 мультфильм BDRip 1080p] OverUnder / Вертикальная стереопара DUB serega768 Скачать
1 | 0
3D Мультфильмы [ 9.03 GB ] Реальная белка 2 3Д / The Nut Job 2: Nutty by Nature 3D [2017 Мультфильм BDRip 1080p] [Half OverUnder / Вертикальная анаморфная стереопара] DUB bober100 Скачать
1 | 0
Иностранные мультфильмы [ 747 MB ] Реальная белка 2 / The Nut Job 2: Nutty by Nature [2017 Мультфильм BDRip] bober100 Скачать
1 | 0
Зарубежные Мультфильмы (BDRip 1080p, 720p, Blu-ray, BD-Remux) [ 6.66 GB ] Реальная белка 2 / The Nut Job 2: Nutty by Nature [2017 Мультфильм BDRip 1080p] bober100 Скачать
1 | 0
Иностранные мультфильмы [ 1.42 GB ] Реальная белка 2 / The Nut Job 2: Nutty by Nature [2017 мультфильм BDRip] - Twi7ter Скачать
2 | 0
Зарубежные Мультфильмы (BDRip 1080p, 720p, Blu-ray, BD-Remux) [ 5.48 GB ] Реальная белка 2 / The Nut Job 2: Nutty by Nature [2017 мультфильм BDRip] [720p] [] killermax2013 Скачать
1 | 0

28-11-2019 20:33  

Отключить всю рекламу на сайте

31-10-2017 15:12 Реальная белка 2 Скачать торрент  

а сабы когда будут кто знает?pb.wtf



    Дорогой пользователь! Огромная просьба, поблагодарите релизера, оцените раздачу и оставьте свои комментарий, если Вы скачали Реальная белка 2 через торрент бесплатно! Внесите свою лепту в развитие PiratBit!
    Комментировать посты могут только пользователи прошедшие не сложную регистрацию
    Показать сообщения:    

    Реальная белка 2 через торрент
    Скачать бесплатно Реальная белка 2
    Реальная белка 2 скачать торрент
    Реальная белка 2 смотреть онлайн
    Cкачать фильм Реальная белка 2 бесплатно
    Реальная белка 2 скачать торрент в хорошем качестве
    Реальная белка 2 смотреть онлайн бесплатно в хорошем качестве


    Вы не можете начинать темы
    Вы не можете отвечать на сообщения
    Вы не можете редактировать свои сообщения
    Вы не можете удалять свои сообщения
    Вы не можете голосовать в опросах
    Вы не можете прикреплять файлы к сообщениям
    Вы можете скачивать файлы