Ссылка на приватное зеркало нашего сайта всего за 1$. Внимание количество ограничено!!!

2 сезон

iTunes

1 сезон

1

2 сезон

2 сезон

iTunes

1 сезон

RePack

30

Новинка

ВАЖНО

ИГРА 18+

pack

RePack

MK11
pack

Забери бонус

RePack

jed

!!Акция!!

Alien_Rage

RePack

fifa19

RePack

Assassins Creed: Odyssey

RePack

NEED FOR SPEED™ PAYBACK

4 сезон

9 сезон

Бесстыжие 9 сезон

Все сериалы

все сериалы на PB.wtf

RePack

FAR CRY 5
  

Ветреная река / Wind River (Тейлор Шеридан) [2017, Боевик, триллер, криминал, детектив, WEB-DL 1080p] DUB [iTunes] pb.wtf

Ветреная река через торрент pb.wtf

Размер: 7.9 GB | Добавлен: 3 года назад | Торрент скачан:707 раз
Скачать  

31-10-2017 12:46 Ветреная река Скачать торрент  

Ветреная река / Wind RiverГод выпуска: 2017
Страна: Великобритания, Канада, США
Жанр: Боевик, триллер, криминал, детектив
Продолжительность: 01:46:43
Перевод: Дублированный | iTunes
Субтитры: Русские, английские

Режиссер: Тейлор Шеридан

rating

В ролях:

Джереми Реннер, Элизабет Олсен, Джон Бернтал, Келси Чоу, Джулия Джонс, Тео Брионес, Апесанахкват, Грэм Грин, Танту Кардинал, Эрик Ланж, Джил Бирмингем

Описание:

Край, где водятся волки и пумы, а морозные ослепительно-солнечные дни сменяются метелью, где индейцы живут в резервации «Ветреная река», охотник, идущий по следу пумы на снегоходе, натыкается на труп девушки. В край, где нет подкрепления - каждый сам за себя, приезжает молодая сотрудница ФБР и просит охотника помочь найти убийцу. Сюжет фильма основан на реальных событиях.

Качество: WEB-DL 1080p | AMAZON
Формат: MKV
Видео кодек: H.264
Аудио кодек: AC3

Видео: MPEG-4 AVC, 1920x800, 9828 Kbit/s, 23.976 fps
Аудио#1: 48 kHz, AC3, 5.1, 384 Kbps | Дублированный | iTunes | RUS |
Аудио#2: 48 kHz, AC3, 5.1, 384 Kbps | Оригинал | ENG |

Релиз от:
скриншот   скриншот   скриншот   скриншот   скриншот  

General
Unique ID : 215980019840593166551867021808432547150 (0xA27C3D1F60ACED17AD066E1F4D1F854E)
Complete name : G:VideoSSDWind.River.2017.AMZN.WEB-DL.1080p.ExKinoRay.mkv
Format : Matroska
Format version : Version 4 / Version 2
File size : 7.90 GiB
Duration : 1 h 46 min
Overall bit rate mode : Variable
Overall bit rate : 10.6 Mb/s
Movie name : Release by ExKinoRay
Encoded date : UTC 2017-10-31 11:32:59
Writing application : mkvmerge v17.0.0 ('Be Ur Friend') 64-bit
Writing library : libebml v1.3.5 + libmatroska v1.4.8
Cover : Yes
Attachments : cover.jpg

Video
ID : 1
Format : AVC
Format/Info : Advanced Video Codec
Format profile : High@L4
Format settings : CABAC / 4 Ref Frames
Format settings, CABAC : Yes
Format settings, RefFrames : 4 frames
Codec ID : V_MPEG4/ISO/AVC
Duration : 1 h 46 min
Bit rate mode : Variable
Bit rate : 9 828 kb/s
Maximum bit rate : 15.0 Mb/s
Width : 1 920 pixels
Height : 800 pixels
Display aspect ratio : 2.40:1
Frame rate mode : Constant
Frame rate : 23.976 (24000/1001) FPS
Color space : YUV
Chroma subsampling : 4:2:0
Bit depth : 8 bits
Scan type : Progressive
Bits/(Pixel*Frame) : 0.267
Stream size : 7.33 GiB (93%)
Language : English
Default : Yes
Forced : No
Color range : Limited
Color primaries : BT.709
Transfer characteristics : BT.709
Matrix coefficients : BT.709

Audio #1
ID : 2
Format : AC-3
Format/Info : Audio Coding 3
Format settings, Endianness : Big
Codec ID : A_AC3
Duration : 1 h 46 min
Bit rate mode : Constant
Bit rate : 384 kb/s
Channel(s) : 6 channels
Channel positions : Front: L C R, Side: L R, LFE
Sampling rate : 48.0 kHz
Frame rate : 31.250 FPS (1536 SPF)
Bit depth : 16 bits
Compression mode : Lossy
Stream size : 293 MiB (4%)
Title : iTunes
Language : Russian
Service kind : Complete Main
Default : Yes
Forced : No

Audio #2
ID : 3
Format : AC-3
Format/Info : Audio Coding 3
Format settings, Endianness : Big
Codec ID : A_AC3
Duration : 1 h 46 min
Bit rate mode : Constant
Bit rate : 384 kb/s
Channel(s) : 6 channels
Channel positions : Front: L C R, Side: L R, LFE
Sampling rate : 48.0 kHz
Frame rate : 31.250 FPS (1536 SPF)
Bit depth : 16 bits
Compression mode : Lossy
Stream size : 293 MiB (4%)
Title : Original
Language : English
Service kind : Complete Main
Default : No
Forced : No

Text #1
ID : 4
Format : UTF-8
Codec ID : S_TEXT/UTF8
Codec ID/Info : UTF-8 Plain Text
Duration : 1 h 43 min
Bit rate : 89 b/s
Count of elements : 1251
Stream size : 67.4 KiB (0%)
Title : Full
Language : Russian
Default : No
Forced : No

Text #2
ID : 5
Format : UTF-8
Codec ID : S_TEXT/UTF8
Codec ID/Info : UTF-8 Plain Text
Duration : 1 h 43 min
Bit rate : 52 b/s
Count of elements : 1244
Stream size : 39.9 KiB (0%)
Title : Full
Language : English
Default : No
Forced : No

Menu
00:00:00.000 : en:1
00:03:19.000 : en:2
00:11:06.000 : en:3
00:19:35.000 : en:4
00:30:11.000 : en:5
00:37:36.000 : en:6
00:45:58.000 : en:7
00:52:39.000 : en:8
01:02:05.000 : en:9
01:11:18.000 : en:10
01:24:05.000 : en:11
01:31:19.000 : en:12
01:40:27.000 : en:13

pb.wtf



Скачать Ветреная река через торрент http://s018.radikal.ru/i514/1710/a9/46d19a7f800f.jpg Скачать фильм Ветреная река через торрент бесплантно в хорошем качестве Описание: Край, где водятся волки и пумы, а морозные ослепительно-солнечные дни сменяются метелью, где индейцы живут в резервации «Ветреная ... 9.5 10 19
Info! Золотая раздача, скачанное не засчитывается.
Торрент: Зарегистрирован [2017-10-31 12:46] · скачан: 707 раз
Статус: √ проверено
Размер: 7.9 GB
Как cкачать? Как скачать Ветреная река через торрент | qTorrent

% Раздел Тема Автор DL S | L
Фильмы (Blu-ray, BD-Remux, HDDVD) [ 27.49 GB ] Ветреная река / Wind River [2016 BDRemux 1080p] DUB [] + AVO [Гаврилов] sheker187 Скачать
1 | 0
Фильмы с авторской озвучкой [ 1.72 GB ] Ветреная река / Wind River [2017 HDRip-AVC] [AVO] killermax2013 Скачать
1 | 0
Фильмы [HD 720p, 1080p] (Хороший звук DUB, MVO) [ 9.38 GB ] Ветреная река / Wind River [2017 BDRip 1080p] DUB [] bober100 Скачать
1 | 0
Фильмы 2017 [DVDrip, WEB-DLRip, HDrip] (DUB, MVO) [ 2.1 GB ] Ветреная река / Wind River [2017 HDRip-AVC] [] - ExKinoRay Enigma2010 Скачать
2 | 0
Фильмы [HD 720p, 1080p] (Хороший звук DUB, MVO) [ 6.71 GB ] Ветреная река / Wind River [2017 BDRip 720p] DUB [] bober100 Скачать
2 | 0
Фильмы (Blu-ray, BD-Remux, HDDVD) [ 19.52 GB ] Ветреная река / Wind River [2017 Blu-ray 1080p] [Rus Transfer] DUB [] bober100 Скачать
1 | 0
Фильмы (Blu-ray, BD-Remux, HDDVD) [ 25.59 GB ] Ветреная река / Wind River [2017 BD Remux 1080p] [US Transfer] DUB [] bober100 Скачать
1 | 0

28-11-2019 20:33  

Отключить всю рекламу на сайте

17-11-2017 21:40 Ветреная река Скачать торрент  

Настоящие кино про жизнь. Стоит посмотреть. Меня с женой равнодушными данная картина не оставила. Прекрасная игра актеров, понятный и затягивающий сюжет, красивые и суровые пейзажи. И финал, просто сносит с места.
Стоит сказать, что фильм для взрослых и снят по взрослому - раскрыты характеры и чувства героев через взгляды, молчание и мысли.
Д рекомендует.pb.wtf



27-11-2017 00:39 Ветреная река Скачать торрент  

В последние месяцы имхо сильнейшее кино. На реальных событиях, круто все и вся. Давно забытое желание во время просмотра - что кино не заканчивалось подольше. Авторам поклон.pb.wtf



    Дорогой пользователь! Огромная просьба, поблагодарите релизера, оцените раздачу и оставьте свои комментарий, если Вы скачали Ветреная река через торрент бесплатно! Внесите свою лепту в развитие PiratBit!
    Комментировать посты могут только пользователи прошедшие не сложную регистрацию
    Показать сообщения:    

    Ветреная река через торрент
    Скачать бесплатно Ветреная река
    Ветреная река скачать торрент
    Ветреная река смотреть онлайн
    Cкачать фильм Ветреная река бесплатно
    Ветреная река скачать торрент в хорошем качестве
    Ветреная река смотреть онлайн бесплатно в хорошем качестве


    Вы не можете начинать темы
    Вы не можете отвечать на сообщения
    Вы не можете редактировать свои сообщения
    Вы не можете удалять свои сообщения
    Вы не можете голосовать в опросах
    Вы не можете прикреплять файлы к сообщениям
    Вы можете скачивать файлы