1 сезон

3 сезон

iTunes

1

Line

MVO

iTunes

13

1 сезон

RePack

30

Deluxe

pack

Лицензия

ВАЖНО

ИГРА 18+

pack

RePack

MK11

RePack

jed

RePack

fifa19

RePack

RDR2

RePack

NEED FOR SPEED™ PAYBACK

4 сезон

9 сезон

Бесстыжие 9 сезон

Все сериалы

все сериалы на PB.wtf

RePack

FAR CRY 5

Anonymous, доброе утро, мы катастрофически не успеваем собрать деньги на оплату серверов, помогите нам пожалуйста 5,10,15р., для нас важна любая помощь . В качестве благодарности мы отключим Вам всю рекламу на сайте (укажите свой ник в строку Ваше имя)!

×
  
Magnet ссылка

Эммануэль / Emmanuelle (Жюст Жэкин) [1974 г., драма, мелодрама, эротика, HDRip на КПК от R.G. Resident] pb.wtf

Эммануэль через торрент pb.wtf

Размер: 453 MB | Добавлен: 3 года 9 мес. назад | Торрент скачан:136 раз
Скачать  

31-10-2017 17:09 Эммануэль Скачать торрент  

Эммануэль / Emmanuelle Информация о фильме
Год выпуска: 1974
Страна: Франция
Жанр: драма, мелодрама, эротика

Режиссёр: Жюст Жэкин
В ролях: Сильвия Кристель, Ален Кюни, Марика Грин, Даниэль Сарки, Жанна Коллетен, Кристин Буассон, Саманта, Габриэль Бриан, Грегори

Продолжительность: 01:34:13
Перевод: Профессиональный (двухголосый, закадровый)
Субтитры: Нет

Описание: Первый фильм о жрице любви Эммануэль. Сюжет служит канвой для описания сексуальных похождений героини в Юго-Восточной Азии.
Муж Эммануэль, работающий в посольстве, поощряет в ней стремление к раскрепощенности в сексе, благо весь дипломатический корпус, особенно женщины, изнывают от скуки. За её воспитание берется уже пожилой специалист. Эммануэль делает большие успехи в искусстве любви.

Рип от: Банщик
Релиз от:

Файл
Качество: HDRip
Формат: MP4
Видео кодек: AVC
Аудио кодек: AAC
Видео: 480x296, 540 kbps, 24 fps
Аудио: 128 kbps, 2 ch, 48,0 khz
скриншот   скриншот   скриншот   скриншот   скриншот  
General
Complete name : E:\Видео\Эммануэль (Emmanuelle).mp4
Format : MPEG-4
Format profile : Base Media
Codec ID : isom
File size : 453 MiB
Duration : 1h 34mn
Overall bit rate mode : Variable
Overall bit rate : 672 Kbps
Encoded date : UTC 2017-10-30 10:02:22
Tagged date : UTC 2017-10-30 10:02:22

Video
ID : 1
Format : AVC
Format/Info : Advanced Video Codec
Format profile : High@L2.1
Format settings, CABAC : Yes
Format settings, ReFrames : 8 frames
Codec ID : avc1
Codec ID/Info : Advanced Video Coding
Duration : 1h 34mn
Bit rate : 540 Kbps
Maximum bit rate : 4 345 Kbps
Width : 480 pixels
Height : 296 pixels
Display aspect ratio : 16:10
Frame rate mode : Constant
Frame rate : 24.000 fps
Color space : YUV
Chroma subsampling : 4:2:0
Bit depth : 8 bits
Scan type : Progressive
Bits/(Pixel*Frame) : 0.158
Stream size : 364 MiB (80%)
Writing library : x264 core 130 r2273 b3065e6
Encoding settings : cabac=1 / ref=8 / deblock=1:-1:-1 / analyse=0x3:0x133 / me=umh / subme=8 / psy=1 / psy_rd=1.00:0.10 / mixed_ref=1 / me_range=24 / chroma_me=1 / trellis=2 / 8x8dct=1 / cqm=0 / deadzone=21,11 / fast_pskip=0 / chroma_qp_offset=-3 / threads=3 / lookahead_threads=1 / sliced_threads=0 / nr=0 / decimate=1 / interlaced=0 / bluray_compat=0 / constrained_intra=0 / bframes=8 / b_pyramid=2 / b_adapt=2 / b_bias=0 / direct=3 / weightb=1 / open_gop=0 / weightp=2 / keyint=250 / keyint_min=23 / scenecut=40 / intra_refresh=0 / rc_lookahead=50 / rc=2pass / mbtree=1 / bitrate=540 / ratetol=1.0 / qcomp=0.60 / qpmin=0 / qpmax=69 / qpstep=4 / cplxblur=20.0 / qblur=0.5 / ip_ratio=1.40 / aq=1:1.00
Encoded date : UTC 2017-10-30 10:02:22
Tagged date : UTC 2017-10-30 10:02:40

Audio
ID : 2
Format : AAC
Format/Info : Advanced Audio Codec
Format profile : LC
Codec ID : 40
Duration : 1h 34mn
Bit rate mode : Variable
Bit rate : 128 Kbps
Maximum bit rate : 141 Kbps
Channel(s) : 2 channels
Channel positions : Front: L R
Sampling rate : 48.0 KHz
Compression mode : Lossy
Stream size : 86.3 MiB (19%)
Encoded date : UTC 2017-10-30 10:02:36
Tagged date : UTC 2017-10-30 10:02:40
pb.wtf



Скачать Эммануэль через торрент http://i89.fastpic.ru/big/2017/1030/5c/b6ebe2e2bf2461532e5b7a48ffa6635c.gif Скачать фильм Эммануэль через торрент бесплантно в хорошем качестве Описание: Первый фильм о жрице любви Эммануэль. Сюжет служит канвой для описания сексуальных похождений героини в Юго-Восточной Азии.Муж ... 8.8 10 13
Info! Золотая раздача, скачанное не засчитывается.
Торрент: Зарегистрирован [2017-10-31 17:09] · скачан: 136 раз
Статус: √ проверено
Размер: 453 MB
Как cкачать? Как скачать Эммануэль через торрент | UTorrent

% Раздел Тема Автор DL S | L
# Фильмы до 2000 г. [ 1.97 GB ] Эммануэль в Венеции / Emmanuelle in Veniсe [1993 эротика DVDRip-AVC DVO AVO] PROCTOLOG Скачать
2 | 0
Фильмы [HD 720p, 1080p] (Хороший звук DUB, MVO) [ 4.04 GB ] Эммануэль / Emmanuelle [1974 BDRip 720p]MVO lev1244v Скачать
1 | 0
# Фильмы [HD 720p, 1080p] (Хороший звук DUB, MVO) [ 5.47 GB ] Прощай Эммануэль / Goodbye Emmanuelle [1977 BDRip-720р]VO lev1244v Скачать
1 | 0
Фильмы [HD 720p, 1080p] (Хороший звук DUB, MVO) [ 5.1 GB ] Эммануэль 2 / Emmanuelle: L'antivierge [1975 BDRip 720р]AVO lev1244v Скачать
1 | 0
Эротические и Документальные фильмы [ 649 MB ] Эммануэль 2000: Драгоценности Эммануэль / Emmanuelle 2000: Jewel of Emmanuelle [2000 эротика ] Nurik Скачать
1 | 0

28-11-2019 20:33  

Отключить всю рекламу на сайте

31-10-2017 22:20 Эммануэль Скачать торрент  

Спсб гляну... помню книжку угнал на рынке ... малый был ... аккурат хрясь за пояс под футболку ...(времена были аудио кассеты продавали ...VHS только пояились)
мда ... что поню с книги .. сцену в самолете ..
потом корешам читать давал .... * говорил только не запачкай )*
Спсб )pb.wtf



01-11-2017 16:27 Эммануэль Скачать торрент  

хороощий фильмецpb.wtf



    Дорогой пользователь! Огромная просьба, поблагодарите релизера, оцените раздачу и оставьте свои комментарий, если Вы скачали Эммануэль через торрент бесплатно! Внесите свою лепту в развитие PiratBit!
    Комментировать посты могут только пользователи прошедшие не сложную регистрацию
    Показать сообщения:    

    Эммануэль через торрент
    Скачать бесплатно Эммануэль
    Эммануэль скачать торрент
    Эммануэль смотреть онлайн
    Cкачать фильм Эммануэль бесплатно
    Эммануэль скачать торрент в хорошем качестве
    Эммануэль смотреть онлайн бесплатно в хорошем качестве


    Вы не можете начинать темы
    Вы не можете отвечать на сообщения
    Вы не можете редактировать свои сообщения
    Вы не можете удалять свои сообщения
    Вы не можете голосовать в опросах
    Вы не можете прикреплять файлы к сообщениям
    Вы можете скачивать файлы