Ссылка на приватное зеркало всего за 1$. Внимание количество ограничено!!!

iTunes

iTunes

iTunes

1

iTunes

iTunes

iTunes

iTunes

iTunes

30
pack

Новость дня

ВАЖНО

!!Акция!!

Alien_RageХит недели

RePack

Resident Evil 21

ИГРА 18+

pack

RePack

jed

!!Акция!!

Alien_Rage

RePack

fifa19

RePack

Assassins Creed: Odyssey

RePack

NEED FOR SPEED™ PAYBACK

4 сезон

9 сезон

Бесстыжие 9 сезон

Все сериалы

все сериалы на PB.wtf

RePack

FAR CRY 5
  

Ссора в Лукашах (Максим Руф) [1959, СССР, мюзикл, комедия, SATRip от AVP Studio] pb.wtf

Ссора в Лукашах через торрент pb.wtf

Размер: 745 MB | Добавлен: 2 года 6 мес. назад | Торрент скачан:30 раз
Скачать  

01-11-2017 09:46 Ссора в Лукашах Скачать торрент  

Ссора в Лукашах
Страна: СССР
Производство: Ленфильм

Жанр: мюзикл, комедия
Год выпуска: 1959
Продолжительность: 01:28:08

Перевод: Не требуется
Cубтитры: нет
Оригинальная аудиодорожка: русский

Режиссер: Максим Руф

В ролях:
Сергей Плотников, Кирилл Лавров, Леонид Быков, Инга Будкевич, Галина Теплинская, Галина Васильева, Павел Волков, Валентина Телегина, Борис Рыжухин, Георгий Гумилевский...
Об актёрах подробней

Описание:
Виктор Туз (Леонид Быков) никогда не думал, что будет заниматься машинами. Не лежала у парня душа к технике. Истинным его призванием было искусство. Когда же колхозу понадобилось послать человека на курсы механизаторов, другой кандидатуры не нашлось. Но механик из Туза не получился.

Источник: DVB
Качество видео: SATRip
Формат видео: AVI

Видео: 640x480 (4:3), 25 fps, XviD ~ 1044 kbps avg, 0.136 bit/pixel
Аудио: 48 kHz, MP3 2.0, 128 kbps

Раздача от:
Общее
Полное имя : Ssora.v.Lukashah.1959.SATRip-745_[New-team]_by_AVP_Studio.avi
Формат : AVI
Формат/Информация : Audio Video Interleave
Размер файла : 745 Мбайт
Продолжительность : 1 ч. 28 м.
Общий поток : 1182 Кбит/сек
Программа кодирования : VirtualDubMod 1.5.10.3 | www.virtualdub-fr.org || (build 2550/release)
Библиотека кодирования : VirtualDubMod build 2550/release

Видео
Идентификатор : 0
Формат : MPEG-4 Visual
Профиль формата : Advanced Simple@L5
Параметр BVOP формата : 1
Параметр QPel формата : Нет
Параметр GMC формата : Без точки перехода
Параметр матрицы формата : Выборочная
Идентификатор кодека : XVID
Идентификатор кодека/Подсказка : XviD
Продолжительность : 1 ч. 28 м.
Битрейт : 1044 Кбит/сек
Ширина : 640 пикселей
Высота : 480 пикселей
Соотношение сторон : 4:3
Частота кадров : 25,000 кадров/сек
Цветовое пространство : YUV
Субдискретизация насыщенности : 4:2:0
Битовая глубина : 8 бит
Тип развёртки : Прогрессивная
Метод сжатия : С потерями
Бит/(Пиксели*Кадры) : 0.136
Размер потока : 658 Мбайт (88%)
Библиотека кодирования : XviD 73

Аудио
Идентификатор : 1
Формат : MPEG Audio
Версия формата : Version 1
Профиль формата : Layer 3
Идентификатор кодека : 55
Идентификатор кодека/Подсказка : MP3
Продолжительность : 1 ч. 28 м.
Вид битрейта : Постоянный
Битрейт : 128 Кбит/сек
Каналы : 2 канала
Частота : 48,0 КГц
Метод сжатия : С потерями
Размер потока : 80,7 Мбайт (11%)
Выравнивание : Соединение по промежуткам
Продолжительность промежутка : 40 мс. (1,00 видеокадр)
Время предзагрузки промежутка : 504 мс.
Библиотека кодирования : LAME3.99r
Настройки программы : -m s -V 4 -q 2 -lowpass 17 -b 128
pb.wtf



Скачать Ссора в Лукашах через торрент http://s41.radikal.ru/i094/1711/f4/0e9f3b719f15.png Скачать фильм Ссора в Лукашах через торрент бесплантно в хорошем качестве Описание:Виктор Туз (Леонид Быков) никогда не думал, что будет заниматься машинами. Не лежала у парня душа к технике. Истинным его ... 5 10 1
Info! Золотая раздача, скачанное не засчитывается.
Торрент: Зарегистрирован [2017-11-01 09:46] · скачан: 30 раз
Статус: √ проверено
Размер: 745 MB
Как cкачать? Как скачать Ссора в Лукашах через торрент | qTorrent

% Раздел Тема Автор DL S | L
Кино СССР [ 1.09 GB ] Ссора в Лукашах [1959 СССР мюзикл SATRip-AVC от AVP Studio] AVP Studio Скачать
1 | 0
Кино СССР [ 1.09 GB ] Ссора в Лукашах [1959 СССР мюзикл SATRip от AVP Studio] AVP Studio Скачать
1 | 0

28-11-2019 20:33  

Отключить всю рекламу на сайте

    Дорогой пользователь! Огромная просьба, поблагодарите релизера, оцените раздачу и оставьте свои комментарий, если Вы скачали Ссора в Лукашах через торрент бесплатно! Внесите свою лепту в развитие PiratBit!
    Комментировать посты могут только пользователи прошедшие не сложную регистрацию
    Показать сообщения:    

    Ссора в Лукашах через торрент
    Скачать бесплатно Ссора в Лукашах
    Ссора в Лукашах скачать торрент
    Ссора в Лукашах смотреть онлайн
    Cкачать фильм Ссора в Лукашах бесплатно
    Ссора в Лукашах скачать торрент в хорошем качестве
    Ссора в Лукашах смотреть онлайн бесплатно в хорошем качестве


    Вы не можете начинать темы
    Вы не можете отвечать на сообщения
    Вы не можете редактировать свои сообщения
    Вы не можете удалять свои сообщения
    Вы не можете голосовать в опросах
    Вы не можете прикреплять файлы к сообщениям
    Вы можете скачивать файлы