Ссылка на приватное зеркало нашего сайта всего за 1$. Внимание количество ограничено!!!

2 сезон

iTunes

1 сезон

1

iTunes

iTunes

iTunes

1 сезон

RePack

30

ИГРА 18+

pack

ВАЖНО

!!Акция!!

Alien_RageХит недели

RePack

MK11
pack

Забери бонус

RePack

jed

!!Акция!!

Alien_Rage

RePack

fifa19

RePack

Assassins Creed: Odyssey

RePack

NEED FOR SPEED™ PAYBACK

4 сезон

9 сезон

Бесстыжие 9 сезон

Все сериалы

все сериалы на PB.wtf

RePack

FAR CRY 5
  

Хранилище / The Vault (Дэн Буш) [2017, Триллер, ужасы, BDRip 1080p от ExKinoRay | iTunes] MVO pb.wtf

Хранилище через торрент pb.wtf

Размер: 7.67 GB | Добавлен: 2 года 11 мес. назад | Торрент скачан:235 раз
Скачать  

01-11-2017 10:28 Хранилище Скачать торрент  

Информация о фильме

Название: Хранилище
Оригинальное название: The Vault
Год выхода: 2017
Страна: США
Студия: Redwire Pictures, Content Media, Culmination Productions
Продолжительность: 01:31:38
Перевод: Профессиональный многоголосый | iTunes
Субтитры: Английские
Жанр: Триллер, ужасы
Режиссер: Дэн Буш
В ролях: Джеймс Франко, Тэрин Мэннинг, Франческа Фишер-Иствуд, Скотт Хэйз, К Орианка Килчер, Джефф Гам, Клифтон Коллинз мл., Кит Лонекер, Джилл Джейн Клементс
О фильме:

Во время ограбления банка преступники вскрывают старое хранилище, которым давно никто не пользовался. Открыв запретную дверь, они выпускают в мир призраков, охраняющих находящиеся там сокровища.

rating

Файл

Качество: BDRip 1080p
Формат: MKV

Видео: MPEG-4 AVC, 1920x800, 10.1 Mbit/s, 23.976 fps
Аудио #01: 48 kHz, AC3, 5.1, 384 Kbps | iTunes | RUS |
Аудио #02: 48 kHz, DTS, 5.1, 1519 Kbps | Оригинал | ENG |

General

Unique ID : 246912798393376492053369336381561973393 (0xB9C1ACDA6B8764EC8F0E98AD14D52A91)

Complete name : G:VideoSSDThe.Vault.2017.BDRip.1080p.ExKinoRay.mkv

Format : Matroska

Format version : Version 4 / Version 2

File size : 7.67 GiB

Duration : 1 h 31 min

Overall bit rate : 12.0 Mb/s

Movie name : Release by ExKinoRay

Encoded date : UTC 2017-11-01 07:47:38

Writing application : mkvmerge v17.0.0 ('Be Ur Friend') 64-bit

Writing library : libebml v1.3.5 + libmatroska v1.4.8

Cover : Yes

Attachments : cover.jpg

Video

ID : 1

Format : AVC

Format/Info : Advanced Video Codec

Format profile : High@L4.1

Format settings : CABAC / 5 Ref Frames

Format settings, CABAC : Yes

Format settings, RefFrames : 5 frames

Codec ID : V_MPEG4/ISO/AVC

Duration : 1 h 31 min

Bit rate : 10.1 Mb/s

Width : 1 920 pixels

Height : 800 pixels

Display aspect ratio : 2.40:1

Frame rate mode : Constant

Frame rate : 23.976 (24000/1001) FPS

Color space : YUV

Chroma subsampling : 4:2:0

Bit depth : 8 bits

Scan type : Progressive

Bits/(Pixel*Frame) : 0.276

Stream size : 6.46 GiB (84%)

Writing library : x264 core 148 r2705 3f5ed56

Encoding settings : cabac=1 / ref=5 / deblock=1:-3:-3 / analyse=0x3:0x133 / me=umh / subme=11 / psy=1 / psy_rd=1.05:0.05 / mixed_ref=1 / me_range=48 / chroma_me=1 / trellis=2 / 8x8dct=1 / cqm=0 / deadzone=21,11 / fast_pskip=0 / chroma_qp_offset=-3 / threads=24 / lookahead_threads=4 / sliced_threads=0 / nr=0 / decimate=0 / interlaced=0 / bluray_compat=0 / constrained_intra=0 / bframes=10 / b_pyramid=2 / b_adapt=2 / b_bias=0 / direct=3 / weightb=1 / open_gop=0 / weightp=2 / keyint=240 / keyint_min=23 / scenecut=40 / intra_refresh=0 / rc_lookahead=50 / rc=2pass / mbtree=0 / bitrate=10150 / ratetol=1.0 / qcomp=0.60 / qpmin=0 / qpmax=69 / qpstep=4 / cplxblur=20.0 / qblur=0.5 / vbv_maxrate=50000 / vbv_bufsize=62500 / nal_hrd=none / filler=0 / ip_ratio=1.40 / pb_ratio=1.30 / aq=3:0.80

Language : English

Default : Yes

Forced : No

Audio #1

ID : 2

Format : AC-3

Format/Info : Audio Coding 3

Format settings, Endianness : Big

Codec ID : A_AC3

Duration : 1 h 31 min

Bit rate mode : Constant

Bit rate : 384 kb/s

Channel(s) : 6 channels

Channel positions : Front: L C R, Side: L R, LFE

Sampling rate : 48.0 kHz

Frame rate : 31.250 FPS (1536 SPF)

Bit depth : 16 bits

Compression mode : Lossy

Stream size : 251 MiB (3%)

Title : iTunes

Language : Russian

Service kind : Complete Main

Default : Yes

Forced : No

Audio #2

ID : 3

Format : DTS

Format/Info : Digital Theater Systems

Mode : 16

Format settings, Endianness : Big

Codec ID : A_DTS

Duration : 1 h 31 min

Bit rate mode : Constant

Bit rate : 1 509 kb/s

Channel(s) : 6 channels

Channel positions : Front: L C R, Side: L R, LFE

Sampling rate : 48.0 kHz

Frame rate : 93.750 FPS (512 SPF)

Bit depth : 24 bits

Compression mode : Lossy

Stream size : 987 MiB (13%)

Title : Original

Language : English

Default : No

Forced : No

Text

ID : 4

Format : UTF-8

Codec ID : S_TEXT/UTF8

Codec ID/Info : UTF-8 Plain Text

Duration : 1 h 28 min

Bit rate : 45 b/s

Count of elements : 749

Stream size : 29.2 KiB (0%)

Title : Full

Language : English

Default : No

Forced : No

Menu

00:00:00.000 : en:00:00:00.000

00:06:42.944 : en:00:06:42.944

00:13:18.965 : en:00:13:18.965

00:21:45.721 : en:00:21:45.721

00:29:45.075 : en:00:29:45.075

00:37:21.239 : en:00:37:21.239

00:44:24.871 : en:00:44:24.871

00:52:05.831 : en:00:52:05.831

01:00:55.277 : en:01:00:55.277

01:09:07.060 : en:01:09:07.060

01:15:29.108 : en:01:15:29.108

01:22:59.474 : en:01:22:59.474
pb.wtf



Скачать Хранилище через торрент http://s018.radikal.ru/i502/1710/97/811791759be3.jpg Скачать фильм Хранилище через торрент бесплантно в хорошем качестве О фильме:Во время ограбления банка преступники вскрывают старое хранилище, которым давно никто не пользовался. Открыв запретную дверь, они ... 9.1 10 9
Info! Золотая раздача, скачанное не засчитывается.
Торрент: Зарегистрирован [2017-11-01 10:28] · скачан: 235 раз
Статус: √ проверено
Размер: 7.67 GB
Как cкачать? Как скачать Хранилище через торрент | qTorrent

% Раздел Тема Автор DL S | L
Фильмы 2017 [DVDrip, WEB-DLRip, HDrip] (DUB, MVO) [ 1.42 GB ] Хранилище / The Vault [2017 BDRip] MVO bober100 Скачать
1 | 0
Фильмы 2017 [DVDrip, WEB-DLRip, HDrip] (DUB, MVO) [ 1.71 GB ] Хранилище / The Vault [2017 WEB-DLRip-AVC] MVO bober100 Скачать
1 | 0
Фильмы (Blu-ray, BD-Remux, HDDVD) [ 14.45 GB ] Хранилище / The Vault [2017 BD Remux 1080p] MVO bober100 Скачать
1 | 0
Фильмы 2017 [DVDrip, WEB-DLRip, HDrip] (DUB, MVO) [ 746 MB ] Хранилище / The Vault [2017 HDRip] MVO bober100 Скачать
1 | 0
Фильмы (WEB-DL 720p, 1080p) [ 3.44 GB ] Хранилище / The Vault [2017 WEB-DL 1080p] MVO bober100 Скачать
1 | 0

28-11-2019 20:33  

Отключить всю рекламу на сайте

01-11-2017 10:41 Хранилище Скачать торрент  

Топик был перенесен из форума Фильмы [HD 720p, 1080p] (Звук Cam, VO, DVO) в форум Фильмы [HD 720p, 1080p] (Хороший звук DUB, MVO)


bober100pb.wtf



    Дорогой пользователь! Огромная просьба, поблагодарите релизера, оцените раздачу и оставьте свои комментарий, если Вы скачали Хранилище через торрент бесплатно! Внесите свою лепту в развитие PiratBit!
    Комментировать посты могут только пользователи прошедшие не сложную регистрацию
    Показать сообщения:    

    Хранилище через торрент
    Скачать бесплатно Хранилище
    Хранилище скачать торрент
    Хранилище смотреть онлайн
    Cкачать фильм Хранилище бесплатно
    Хранилище скачать торрент в хорошем качестве
    Хранилище смотреть онлайн бесплатно в хорошем качестве


    Вы не можете начинать темы
    Вы не можете отвечать на сообщения
    Вы не можете редактировать свои сообщения
    Вы не можете удалять свои сообщения
    Вы не можете голосовать в опросах
    Вы не можете прикреплять файлы к сообщениям
    Вы можете скачивать файлы