Присоединяйтесь к нам в Telegram!, здесь всегда актуальный адрес сайта, оперативная поддержка и многое другое!!

>

5.9

iTunes

7.4

iTunes

9.4

1 сезон

1

7.4

2 сезон

7.2

iTunes

7.3

1 сезон

13

6.1

iTunes

8.3

GOG

30

ULTIMATE

pack

9.9

Лицензия

ВАЖНО

ИГРА 18+

pack

7.3

RePack

MK11

7.7

RePack

jed

7.8

RePack

fifa19

8.5

RePack

RDR2

RePack

NEED FOR SPEED™ PAYBACK

5 сезон

9 сезон

Бесстыжие 9 сезон

Все сериалы

все сериалы на PB.wtf

RePack

FAR CRY 5

Anonymous, добрый вечер, мы катастрофически не успеваем собрать деньги на оплату серверов, помогите нам пожалуйста 5,10,15р., для нас важна любая помощь . В качестве благодарности мы отключим Вам всю рекламу на сайте (укажите свой ник в строку Ваше имя)!

×
  
Magnet ссылка

Руки Вверх (Сергей Жуков) - Конфета [клип] [2017, Поп, UHD WEBRip 2160p] pb.wtf

Руки Вверх через торрент pb.wtf

Размер: 141 MB | Добавлен: 4 года 1 мес. назад | Торрент скачан:128 раз
Смотреть онлайн Руки Вверх | Скачать    Ребята, помогите собрать деньги на оплату серверов!!!

01-11-2017 12:40 Руки Вверх Скачать торрент  

Руки Вверх (Сергей Жуков) - Конфета [клип]
Год выпуска: 2017
Страна: Россия
Жанр: Поп
Продолжительность: 00:03:48

Качество: UHD WEBRip 2160p
Формат: MP4
Видео кодек: H.264
Аудио кодек: AAC

Видео: 3840x2026 / 25fps / 5050 Мбит/сек
Аудио#1: AAC / 44 kHz / 2 channels / 126 Кбит/сек
скриншот   скриншот   скриншот   скриншот  

Общее
Полное имя : C:\Users\Бобер\Desktop\Сергей Жуков - Конфета.mp4
Формат : MPEG-4
Профиль формата : Base Media
Идентификатор кодека : isom (isom/iso2/avc1/mp41)
Размер файла : 141 Мбайт
Продолжительность : 3 м. 48 с.
Общий поток : 5179 Кбит/сек
Программа кодирования : Lavf56.40.101

Видео
Идентификатор : 1
Формат : AVC
Формат/Информация : Advanced Video Codec
Профиль формата : High@L5.1
Параметр CABAC формата : Да
Параметр ReFrames формата : 2 кадра
Идентификатор кодека : avc1
Идентификатор кодека/Информация : Advanced Video Coding
Продолжительность : 3 м. 48 с.
Duration_FirstFrame : -40 мс.
Битрейт : 5049 Кбит/сек
Ширина : 3840 пикселей
Высота : 2026 пикселей
Соотношение сторон : 1,895
Режим частоты кадров : Переменный
Частота кадров : 25,000 кадров/сек
Минимальная частота кадров : 25,000 кадров/сек
Максимальная частота кадров : 25,014 кадров/сек
Цветовое пространство : YUV
Субдискретизация насыщенности : 4:2:0
Битовая глубина : 8 бит
Тип развёртки : Прогрессивная
Бит/(Пиксели*Кадры) : 0.026
Размер потока : 137 Мбайт (97%)
Цветовой диапазон : Limited
Основные цвета : BT.709
Характеристики трансфера : BT.709
Коэффициенты матрицы : BT.709

Аудио
Идентификатор : 2
Формат : AAC
Формат/Информация : Advanced Audio Codec
Профиль формата : LC
Идентификатор кодека : 40
Продолжительность : 3 м. 48 с.
Вид битрейта : Постоянный
Битрейт : 126 Кбит/сек
Каналы : 2 канала
Расположение каналов : Front: L R
Частота : 44,1 КГц
Частота кадров : 43,066 кадра/сек (1024 spf)
Метод сжатия : С потерями
Размер потока : 3,41 Мбайт (2%)
Default : Да

pb.wtf



Скачать Руки Вверх через торрент http://s46.radikal.ru/i111/1711/28/a099a71b4323.jpg Скачать, смотреть онлайн Руки Вверх бесплантно в хорошем качестве Год выпуска: 2017Страна: РоссияЖанр: ПопПродолжительность: ... 7.8 10 8
Торрент: Зарегистрирован [2017-11-01 12:40] · скачан: 128 раз
Статус: √ проверено
Размер: 141 MB
Как cкачать? Как скачать Руки Вверх через торрент | UTorrent

28-11-2019 20:33  

Отключить всю рекламу на сайте

    Дорогой пользователь! Огромная просьба, поблагодарите релизера, оцените раздачу и оставьте свои комментарий, если Вы скачали Руки Вверх через торрент бесплатно!
    Комментировать посты могут только пользователи прошедшие не сложную регистрацию
    Показать сообщения:    

    Руки Вверх через торрент
    Скачать бесплатно Руки Вверх
    Руки Вверх скачать торрент
    Руки Вверх смотреть онлайн
    Cкачать фильм Руки Вверх бесплатно
    Руки Вверх скачать торрент в хорошем качестве
    Руки Вверх смотреть онлайн бесплатно в хорошем качестве


    Вы не можете начинать темы
    Вы не можете отвечать на сообщения
    Вы не можете редактировать свои сообщения
    Вы не можете удалять свои сообщения
    Вы не можете голосовать в опросах
    Вы не можете прикреплять файлы к сообщениям
    Вы можете скачивать файлы