Ссылка на приватное зеркало нашего сайта всего за 1$. Внимание количество ограничено!!!

2 сезон

iTunes

1 сезон

1

2 сезон

2 сезон

iTunes

1 сезон

RePack

30

Ultimate

ВАЖНО

ИГРА 18+

pack

RePack

MK11
pack

Забери бонус

RePack

jed

!!Акция!!

Alien_Rage

RePack

fifa19

RePack

Assassins Creed: Odyssey

RePack

NEED FOR SPEED™ PAYBACK

4 сезон

9 сезон

Бесстыжие 9 сезон

Все сериалы

все сериалы на PB.wtf

RePack

FAR CRY 5
  

Очень странные дела / Stranger Things / Сезон: 2 / Серии 1-9 из 9 (Мэтт Даффер, Росс Даффер, Шон Леви) [2017, ужасы, фантастика, триллер, драма, детектив, приключения, WEBRip 1080p] [MVO] (Good People) pb.wtf

Очень странные дела через торрент pb.wtf

Размер: 50.74 GB | Добавлен: 3 года назад | Торрент скачан:52 раза
Скачать  

01-11-2017 16:42 Очень странные дела Скачать торрент  

Крайне странные события / Stranger Things
Год выпуска: 2017
Страна: США
Жанр: Ужасы, фантастика, триллер, драма, детектив, приключения
Продолжительность: 1 x ~00:48:00
Перевод: Профессиональный (многоголосый закадровый) Студия Good People
Субтитры: английские

Режиссёр: Мэтт Даффер, Росс Даффер, Шон Леви

В ролях: Вайнона Райдер, Дэвид Харбор, Финн Вулфхарт, Милли Бобби Браун, Гейтен Матараццо, Кейлеб МакЛохлен, Наталия Дайер, Чарли Хитон, Кейра Буоно, Мэттью Модайн и др.

Описание: Главное действие нового телевизионного сериала разворачивается в 80-х годах на территории тихого провинциального города. Благоприятное течение местной жизни нарушает загадочное исчезновение подростка по имени Уилл. Выяснить обстоятельства дела, полны решимости родные мальчика и местный шериф. Также события затрагивают лучшего друга Уилла – Майка. Он начинает собственное расследование, в процессе которого встречает группу людей со сверхспособностями. Теперь Майк уверен, что близок к разгадке, однако для этого ему предстоит оказаться в эпицентре ожесточенной битвы потусторонних сил. Действие второго сезона сериала начинается через год после событий, показанных в первом. Герои пытаются вернуться к обычной жизни, но встреча с необъяснимым не делает их жизнь проще.

Сэмпл

Качество: WEBRip 1080p
Формат: MKV
Видео кодек: AVC
Аудио кодек: AC3
Видео: H264, 1920x960, 23.976 fps, ~14000kbps, 0.319 bit/pixel
Аудио 1: Dolby AC3 48000Hz 5.1 384 Kbps Русский v1
Аудио 2: Dolby AC3 48000Hz 5.1 384 Kbps Русский v2
Аудио 3: Dolby AC3 48000Hz 5.1 384 Kbps Оригинал

Цитата:

Для удобства зрителей - в раздаче представлены 2 версии озвучки!

1) 10-голосая озвучка, Дастина и Оди озвучивают новые голоса, т.к оригинальные актёры повзрослели,
2) 10-голосая озвучка, Дастина и Оди озвучивают те же актёры, что и раньше.

General
Unique ID                   : 221259498297500816723142922575960019919 (0xA6750781D9F64F3DA2A4EBD0D3E713CF)
Complete name               : Stranger.Things.S02E01.Chapter.One.MADMAX.1080p.NF.WEBRip.DD5.1.x264-GoodPeople.mkv
Format                      : Matroska
Format version              : Version 2
File size                   : 5.20 GiB
Duration                    : 47mn 49s
Overall bit rate            : 15.6 Mbps
Encoded date                : UTC 2017-11-01 05:04:17
Writing application         : mkvmerge v5.4.0 ('Piper') built on Mar 10 2012 13:34:39
Writing library             : libebml v1.2.3 + libmatroska v1.3.0
DURATION                    : 00:44:02.890000000
NUMBER_OF_FRAMES            : 512
NUMBER_OF_BYTES             : 18923
_STATISTICS_WRITING_APP     : mkvmerge v15.0.0 ('Duel with the Devil') 64-bit
_STATISTICS_WRITING_DATE_UT : 2017-10-27 23:11:48
_STATISTICS_TAGS            : BPS DURATION NUMBER_OF_FRAMES NUMBER_OF_BYTES

Video
ID                          : 1
Format                      : AVC
Format/Info                 : Advanced Video Codec
Format profile              : High@L4.1
Format settings, CABAC      : Yes
Format settings, ReFrames   : 4 frames
Codec ID                    : V_MPEG4/ISO/AVC
Duration                    : 47mn 49s
Bit rate                    : 14.1 Mbps
Width                       : 1 920 pixels
Height                      : 960 pixels
Display aspect ratio        : 2.000
Frame rate mode             : Constant
Frame rate                  : 23.976 fps
Color space                 : YUV
Chroma subsampling          : 4:2:0
Bit depth                   : 8 bits
Scan type                   : Progressive
Bits/(Pixel*Frame)          : 0.319
Stream size                 : 4.71 GiB (91%)
Writing library             : x264 core 152 r2851kMod ba24899
Encoding settings           : cabac=1 / ref=4 / deblock=1:-3:-3 / analyse=0x3:0x133 / me=umh / subme=10 / psy=1 / fade_compensate=0.00 / psy_rd=1.00:0.00 / mixed_ref=1 / me_range=48 / chroma_me=1 / trellis=2 / 8x8dct=1 / cqm=0 / deadzone=21,11 / fast_pskip=0 / chroma_qp_offset=-2 / threads=24 / lookahead_threads=4 / sliced_threads=0 / nr=0 / decimate=0 / interlaced=0 / bluray_compat=0 / constrained_intra=0 / bframes=8 / b_pyramid=2 / b_adapt=2 / b_bias=0 / direct=3 / weightb=1 / open_gop=0 / weightp=2 / keyint=250 / keyint_min=23 / scenecut=40 / intra_refresh=0 / rc=crf / mbtree=0 / crf=17.0000 / qcomp=0.60 / qpmin=0 / qpmax=69 / qpstep=4 / ip_ratio=1.30 / pb_ratio=1.20 / aq=3:0.80
Language                    : English
Default                     : Yes
Forced                      : No
DURATION                    : 00:47:49.242000000
NUMBER_OF_FRAMES            : 68793
NUMBER_OF_BYTES             : 5166215451
_STATISTICS_WRITING_APP     : mkvmerge v15.0.0 ('Duel with the Devil') 64-bit
_STATISTICS_WRITING_DATE_UT : 2017-10-27 23:11:48
_STATISTICS_TAGS            : BPS DURATION NUMBER_OF_FRAMES NUMBER_OF_BYTES

Audio #1
ID                          : 2
Format                      : AC-3
Format/Info                 : Audio Coding 3
Mode extension              : CM (complete main)
Format settings, Endianness : Big
Codec ID                    : A_AC3
Duration                    : 47mn 49s
Bit rate mode               : Constant
Bit rate                    : 384 Kbps
Channel(s)                  : 6 channels
Channel positions           : Front: L C R, Side: L R, LFE
Sampling rate               : 48.0 KHz
Compression mode            : Lossy
Stream size                 : 131 MiB (2%)
Title                       : v1
Language                    : Russian
Default                     : Yes
Forced                      : No

Audio #2
ID                          : 3
Format                      : AC-3
Format/Info                 : Audio Coding 3
Mode extension              : CM (complete main)
Format settings, Endianness : Big
Codec ID                    : A_AC3
Duration                    : 47mn 49s
Bit rate mode               : Constant
Bit rate                    : 384 Kbps
Channel(s)                  : 6 channels
Channel positions           : Front: L C R, Side: L R, LFE
Sampling rate               : 48.0 KHz
Compression mode            : Lossy
Stream size                 : 131 MiB (2%)
Title                       : v2
Language                    : Russian
Default                     : No
Forced                      : No

Audio #3
ID                          : 4
Format                      : AC-3
Format/Info                 : Audio Coding 3
Mode extension              : CM (complete main)
Format settings, Endianness : Big
Codec ID                    : A_AC3
Duration                    : 47mn 49s
Bit rate mode               : Constant
Bit rate                    : 384 Kbps
Channel(s)                  : 6 channels
Channel positions           : Front: L C R, Side: L R, LFE
Sampling rate               : 48.0 KHz
Compression mode            : Lossy
Stream size                 : 131 MiB (2%)
Language                    : English
Default                     : No
Forced                      : No

Text
ID                          : 5
Format                      : UTF-8
Codec ID                    : S_TEXT/UTF8
Codec ID/Info               : UTF-8 Plain Text
Language                    : English
Default                     : No
Forced                      : No
скриншот  скриншот  скриншот  
Когда раздача ведётся путём добавления новых серий, при каждом добавлении создётся новый торрент. Чтобы начать докачку новой серии, пользователям необходимо сделать следующее:
(1) остановить скачивание,
(2) удалить старый торрент у себя из клиента (старые серии удалять не надо),
(3) скачать новый торрент и запустить его у себя в клиенте вместо старого, при этом указать клиенту путь в старую папку, куда и должно происходить скачивание новых серий.
Ваш клиент при этом должен произвести хеширование (проверку) старой папки (если не производит сам - помогите ему сделать это), и будет докачивать только те серии, которых у вас ещё нет. Старые серии при этом не удаляются, а продолжают раздаваться!
Eсли вы уже удалили старые серии, то предотвратить повторную закачку старых серий можно, отжав галочку в соответсвующих местах при запуске нового торрента. По возможности, желательно не удалять старые серии как можно дольше, чтобы релизёр не столько продолжал раздавать старые серии, а смог сконцентрироваться на новых.
pb.wtf



Скачать Очень странные дела через торрент http://i89.fastpic.ru/big/2017/1101/be/2e465e7934bbdcb202d6482399dc0dbe.png Скачать фильм Очень странные дела через торрент бесплантно в хорошем качестве Описание: Главное действие нового телевизионного сериала разворачивается в 80-х годах на территории тихого провинциального города. ... 10 10 4
Торрент: Зарегистрирован [2017-11-14 10:31] · скачан: 52 раз
Статус: √ проверено
Размер: 50.74 GB
Как cкачать? Как скачать Очень странные дела через торрент | qTorrent

% Раздел Тема Автор DL S | L
Зарубежные сериалы [ 21.98 GB ] Очень странные дела / Stranger Things / Сезон: 2 / Серии: 1-9 из 9 [2017 BDRip-HEVC 1080p] DUB + 2xMVO RealOldGamer Скачать
2 | 0
Зарубежные сериалы [ 156.64 GB ] Очень странные дела / Stranger Things / 2 сезон / 1-9 серии из 9 [2017 UHD BDRemux 2160p] DUB + 2xMVO [LostFilm NewStudio] sheker187 Скачать
1 | 0
Ultra HD (UHD: 2K, 4K, 8K) — видео сверхвысокой чёткости [ 130.37 GB ] Очень странные дела / Stranger Things / Сезон 2 / Серии 1-9 из 9 [2017 UHD WEBRip 2160p] MVO [Good People LostFilm] bober100 Скачать
1 | 0
Зарубежные сериалы [ 5.85 GB ] Очень странные дела / Stranger Things / Сезон: 2 / Серии 1-9 из 9 [2017 WEBRip] [MVO] killermax2013 Скачать
1 | 0
Зарубежные сериалы [ 4.45 GB ] Очень странные дела / Stranger Things / Сезон: 2 / Серии 1-9 из 9 [2017 WEBRip] [MVO] killermax2013 Скачать
2 | 0
Зарубежные сериалы [ 20.06 GB ] Очень странные дела / Stranger Things / Сезон: 2 / Серии 1-9 из 9 [2017 WEB-DLRip 1080p] [MVO] killermax2013 Скачать
1 | 0
Зарубежные сериалы [ 49.24 GB ] Очень странные дела / Stranger Things / Сезон: 2 / Серии 1-9 из 9 [2017 WEBRip 1080p] [MVO] killermax2013 Скачать
1 | 0


Последний раз редактировалось: killermax2013 (2017-11-14 10:31), всего редактировалось 2 раз(а)

28-11-2019 20:33  

Отключить всю рекламу на сайте

01-11-2017 16:58 Очень странные дела Скачать торрент  

Спасибо. Всё классно, но шрифт описания какой то тяжёлый для чтения (лично для меня), пришлось читать с других раздач. pb.wtf



01-11-2017 17:04 Очень странные дела Скачать торрент  

-ShaMan- писал(а):

Спасибо. Всё классно, но шрифт описания какой то тяжёлый для чтения (лично для меня), пришлось читать с других раздач.

теперь лучше ?pb.wtf



01-11-2017 17:21 Очень странные дела Скачать торрент  

O! Другое дело . Спасибо!
Но Вот здесь у тебя самый лучший pb.wtf





Последний раз редактировалось: -ShaMan- (2017-11-01 17:25), всего редактировалось 1 раз

01-11-2017 17:24 Очень странные дела Скачать торрент  

-ShaMan-, pb.wtf



14-11-2017 10:32 Очень странные дела Скачать торрент  

+3-9pb.wtf



    Дорогой пользователь! Огромная просьба, поблагодарите релизера, оцените раздачу и оставьте свои комментарий, если Вы скачали Очень странные дела через торрент бесплатно! Внесите свою лепту в развитие PiratBit!
    Комментировать посты могут только пользователи прошедшие не сложную регистрацию
    Показать сообщения:    

    Очень странные дела через торрент
    Скачать бесплатно Очень странные дела
    Очень странные дела скачать торрент
    Очень странные дела смотреть онлайн
    Cкачать фильм Очень странные дела бесплатно
    Очень странные дела скачать торрент в хорошем качестве
    Очень странные дела смотреть онлайн бесплатно в хорошем качестве


    Вы не можете начинать темы
    Вы не можете отвечать на сообщения
    Вы не можете редактировать свои сообщения
    Вы не можете удалять свои сообщения
    Вы не можете голосовать в опросах
    Вы не можете прикреплять файлы к сообщениям
    Вы можете скачивать файлы