Ссылка на приватное зеркало нашего сайта всего за 1$. Внимание количество ограничено!!!

2 сезон

iTunes

1 сезон

1

2 сезон

2 сезон

iTunes

1 сезон

RePack

30

Ultimate

ВАЖНО

ИГРА 18+

pack

RePack

MK11
pack

Забери бонус

RePack

jed

!!Акция!!

Alien_Rage

RePack

fifa19

RePack

Assassins Creed: Odyssey

RePack

NEED FOR SPEED™ PAYBACK

4 сезон

9 сезон

Бесстыжие 9 сезон

Все сериалы

все сериалы на PB.wtf

RePack

FAR CRY 5
  

Очень странные дела / Stranger Things / Сезон: 2 / Серии 1-9 из 9 (Мэтт Даффер, Росс Даффер, Шон Леви) [2017, ужасы, фантастика, триллер, драма, детектив, приключения, WEBRip] [MVO] (Good People) pb.wtf

Очень странные дела через торрент pb.wtf

Размер: 5.85 GB | Добавлен: 3 года назад | Торрент скачан:222 раза
Скачать  

01-11-2017 16:48 Очень странные дела Скачать торрент  

Крайне странные события | Stranger Things • Год выпуска: 2017
• Страна: США
• Жанр: ужасы, триллер, драма
• Продолжительность: ~ 00:48:00
• Перевод: Профессиональный (многоголосый закадровый) | Good People

• Режиссёр: Мэтт Даффер, Росс Даффер, Шон Леви

• В ролях: Вайнона Райдер, Дэвид Харбор, Кара Буоно, Милли Бобби Браун, Наталия Дайер, Чарли Хитон, Калеб МакЛафлин, Ной Шнапп и др.

• Описание: Главное действие нового телевизионного сериала разворачивается в 80-х годах на территории тихого провинциального города. Благоприятное течение местной жизни нарушает загадочное исчезновение подростка по имени Уилл. Выяснить обстоятельства дела, полны решимости родные мальчика и местный шериф. Также события затрагивают лучшего друга Уилла – Майка. Он начинает собственное расследование, в процессе которого встречает группу людей со сверхспособностями. Теперь Майк уверен, что близок к разгадке, однако для этого ему предстоит оказаться в эпицентре ожесточенной битвы потусторонних сил.

|

• Качество: WEBRip
• Формат: AVI
• Видео: XviD, 704x352 (2,000), 23,976 fps, ~ 1350 kbps
• Аудио #1: MP3, 48,0 КГц, 2 ch, 128 kbps - Rus
• Аудио #2: MP3, 48,0 КГц, 2 ch, 128 kbps - Rus
• Аудио #3: MP3, 48,0 КГц, 2 ch, 128 kbps - Eng
• Субтитры: отсутствуют
Для удобства зрителей -в раздаче представлены 2 версии озвучки!
1) 10-голосая озвучка, Дастина и Оди озвучивают новые голоса, из-за того, что они стали звучать взрослее,
2) 10-голосая озвучка, Дастина и Оди озвучивают те же актёры, что раньше.
Общее
Полное имя                               : F:\GoodPeople\Stranger Things. Season 2 (WEBRip l 400p l Good People)\Stranger.Things.S02E01.WEBRip.2xRus.Eng.GoodPeople.avi
Формат                                   : AVI
Формат/Информация                        : Audio Video Interleave
Размер файла                             : 596 Мбайт
Продолжительность                        : 47 м. 49 с.
Общий поток                              : 1743 Кбит/сек
Программа кодирования                    : VirtualDubMod 1.5.10.3 | www.virtualdub-fr.org || (build 2550/release)
Библиотека кодирования                   : VirtualDubMod build 2550/release

Видео
Идентификатор                            : 0
Формат                                   : MPEG-4 Visual
Профиль формата                          : Advanced Simple@L5
Параметр BVOP формата                    : 1
Параметр QPel формата                    : Нет
Параметр GMC формата                     : Без точки перехода
Параметр матрицы формата                 : Default (MPEG)
Идентификатор кодека                     : XVID
Идентификатор кодека/Подсказка           : XviD
Продолжительность                        : 47 м. 49 с.
Битрейт                                  : 1341 Кбит/сек
Ширина                                   : 704 пикселя
Высота                                   : 352 пикселя
Соотношение сторон                       : 2,000
Частота кадров                           : 23,976 (24000/1001) кадра/сек
Цветовое пространство                    : YUV
Субдискретизация насыщенности            : 4:2:0
Битовая глубина                          : 8 бит
Тип развёртки                            : Прогрессивная
Метод сжатия                             : С потерями
Бит/(Пиксели*Кадры)                      : 0.226
Размер потока                            : 459 Мбайт (77%)
Библиотека кодирования                   : XviD 73

Аудио #1
Идентификатор                            : 1
Формат                                   : MPEG Audio
Версия формата                           : Version 1
Профиль формата                          : Layer 3
Режим                                    : Joint stereo
Расширение режима                        : MS Stereo
Идентификатор кодека                     : 55
Идентификатор кодека/Подсказка           : MP3
Продолжительность                        : 47 м. 49 с.
Вид битрейта                             : Постоянный
Битрейт                                  : 128 Кбит/сек
Каналы                                   : 2 канала
Частота                                  : 48,0 КГц
Метод сжатия                             : С потерями
Размер потока                            : 43,8 Мбайт (7%)
Выравнивание                             : Соединение по промежуткам
Продолжительность промежутка             : 42  мс. (1,00 видеокадр)
Время предзагрузки промежутка            : 504  мс.

Аудио #2
Идентификатор                            : 2
Формат                                   : MPEG Audio
Версия формата                           : Version 1
Профиль формата                          : Layer 3
Режим                                    : Joint stereo
Расширение режима                        : MS Stereo
Идентификатор кодека                     : 55
Идентификатор кодека/Подсказка           : MP3
Продолжительность                        : 47 м. 49 с.
Вид битрейта                             : Постоянный
Битрейт                                  : 128 Кбит/сек
Каналы                                   : 2 канала
Частота                                  : 48,0 КГц
Метод сжатия                             : С потерями
Размер потока                            : 43,8 Мбайт (7%)
Выравнивание                             : Соединение по промежуткам
Продолжительность промежутка             : 42  мс. (1,00 видеокадр)
Время предзагрузки промежутка            : 504  мс.

Аудио #3
Идентификатор                            : 3
Формат                                   : MPEG Audio
Версия формата                           : Version 1
Профиль формата                          : Layer 3
Режим                                    : Joint stereo
Расширение режима                        : MS Stereo
Идентификатор кодека                     : 55
Идентификатор кодека/Подсказка           : MP3
Продолжительность                        : 47 м. 49 с.
Вид битрейта                             : Постоянный
Битрейт                                  : 128 Кбит/сек
Каналы                                   : 2 канала
Частота                                  : 48,0 КГц
Метод сжатия                             : С потерями
Размер потока                            : 43,8 Мбайт (7%)
Выравнивание                             : Соединение по промежуткам
Продолжительность промежутка             : 42  мс. (1,00 видеокадр)
Время предзагрузки промежутка            : 504  мс.
скриншот  скриншот  скриншот  
Когда раздача ведётся путём добавления новых серий, при каждом добавлении создётся новый торрент. Чтобы начать докачку новой серии, пользователям необходимо сделать следующее:
(1) остановить скачивание,
(2) удалить старый торрент у себя из клиента (старые серии удалять не надо),
(3) скачать новый торрент и запустить его у себя в клиенте вместо старого, при этом указать клиенту путь в старую папку, куда и должно происходить скачивание новых серий.
Ваш клиент при этом должен произвести хеширование (проверку) старой папки (если не производит сам - помогите ему сделать это), и будет докачивать только те серии, которых у вас ещё нет. Старые серии при этом не удаляются, а продолжают раздаваться!
Eсли вы уже удалили старые серии, то предотвратить повторную закачку старых серий можно, отжав галочку в соответсвующих местах при запуске нового торрента. По возможности, желательно не удалять старые серии как можно дольше, чтобы релизёр не столько продолжал раздавать старые серии, а смог сконцентрироваться на новых.
pb.wtf



Скачать Очень странные дела через торрент http://i89.fastpic.ru/big/2017/1101/0c/30a84c0922fa920101477ffe6e5c520c.jpg Скачать фильм Очень странные дела через торрент бесплантно в хорошем качестве Описание: Главное действие нового телевизионного сериала разворачивается в 80-х годах на территории тихого провинциального города. ... 10 10 5
Торрент: Зарегистрирован [2017-11-14 10:27] · скачан: 222 раз
Статус: √ проверено
Размер: 5.85 GB
Как cкачать? Как скачать Очень странные дела через торрент | qTorrent

% Раздел Тема Автор DL S | L
Зарубежные сериалы [ 21.98 GB ] Очень странные дела / Stranger Things / Сезон: 2 / Серии: 1-9 из 9 [2017 BDRip-HEVC 1080p] DUB + 2xMVO RealOldGamer Скачать
2 | 0
Зарубежные сериалы [ 156.64 GB ] Очень странные дела / Stranger Things / 2 сезон / 1-9 серии из 9 [2017 UHD BDRemux 2160p] DUB + 2xMVO [LostFilm NewStudio] sheker187 Скачать
1 | 0
Ultra HD (UHD: 2K, 4K, 8K) — видео сверхвысокой чёткости [ 130.37 GB ] Очень странные дела / Stranger Things / Сезон 2 / Серии 1-9 из 9 [2017 UHD WEBRip 2160p] MVO [Good People LostFilm] bober100 Скачать
1 | 0
Зарубежные сериалы [ 50.74 GB ] Очень странные дела / Stranger Things / Сезон: 2 / Серии 1-9 из 9 [2017 WEBRip 1080p] [MVO] killermax2013 Скачать
1 | 0
Зарубежные сериалы [ 4.45 GB ] Очень странные дела / Stranger Things / Сезон: 2 / Серии 1-9 из 9 [2017 WEBRip] [MVO] killermax2013 Скачать
1 | 0
Зарубежные сериалы [ 20.06 GB ] Очень странные дела / Stranger Things / Сезон: 2 / Серии 1-9 из 9 [2017 WEB-DLRip 1080p] [MVO] killermax2013 Скачать
2 | 0
Зарубежные сериалы [ 49.24 GB ] Очень странные дела / Stranger Things / Сезон: 2 / Серии 1-9 из 9 [2017 WEBRip 1080p] [MVO] killermax2013 Скачать
1 | 0

28-11-2019 20:33  

Отключить всю рекламу на сайте

14-11-2017 10:28 Очень странные дела Скачать торрент  

+3-9pb.wtf



    Дорогой пользователь! Огромная просьба, поблагодарите релизера, оцените раздачу и оставьте свои комментарий, если Вы скачали Очень странные дела через торрент бесплатно! Внесите свою лепту в развитие PiratBit!
    Комментировать посты могут только пользователи прошедшие не сложную регистрацию
    Показать сообщения:    

    Очень странные дела через торрент
    Скачать бесплатно Очень странные дела
    Очень странные дела скачать торрент
    Очень странные дела смотреть онлайн
    Cкачать фильм Очень странные дела бесплатно
    Очень странные дела скачать торрент в хорошем качестве
    Очень странные дела смотреть онлайн бесплатно в хорошем качестве


    Вы не можете начинать темы
    Вы не можете отвечать на сообщения
    Вы не можете редактировать свои сообщения
    Вы не можете удалять свои сообщения
    Вы не можете голосовать в опросах
    Вы не можете прикреплять файлы к сообщениям
    Вы можете скачивать файлы