Ссылка на приватное зеркало всего за 1$. Внимание количество ограничено!!!

iTunes

iTunes

iTunes

1

iTunes

iTunes

iTunes

iTunes

iTunes

30
pack

$ от Little Big

ВАЖНО

!!Акция!!

Alien_RageХит недели

RePack

Resident Evil 21

ИГРА 18+

pack

RePack

jed

!!Акция!!

Alien_Rage

RePack

fifa19

RePack

Assassins Creed: Odyssey

RePack

NEED FOR SPEED™ PAYBACK

4 сезон

9 сезон

Бесстыжие 9 сезон

Все сериалы

все сериалы на PB.wtf

RePack

FAR CRY 5
  

Не твоё тело / Moglie e marito (Симоне Годано) [2017, комедия, WEB-DL 1080p] DUB [iTunes] pb.wtf

Не твоё тело через торрент pb.wtf

Размер: 3.62 GB | Добавлен: 2 года 8 мес. назад | Торрент скачан:333 раза
Скачать  

02-11-2017 04:28 Не твоё тело Скачать торрент  

Не твоё тело / Moglie e marito
Год выпуска: 2017
Страна: Италия
Жанр: комедия
Продолжительность: 01:45:22
Перевод: Дубляж iTunes
Субтитры: отсутствуют

Режиссер: Симоне Годано

rating

В ролях:

Пьерфранческо Фавино, Касия Смутняк, Марта Гастини, Андреа Бруски, Франческа Агостини, Гаэтано Бруно, Валерио Эпри, Паола Кальяри, Флавио Фурно, Себастьян Димулеску

Описание:

Что, если однажды вы поменяетесь телами с вашей второй половинкой? Об этом даже не задумывались Андреа и София. Если бы не один эксперимент, в результате которого пара обнаруживает, что они оказались внутри друг друга. Буквально! Теперь София — блестящий доктор, а Андреа — привлекательная телеведущая на подъеме своей карьеры. Им предстоит не только смириться со своим новым телом, но и примерить на себя все привычки и знания друг друга… Ей проводить тяжелейшие операции, ему освоить журналистскую профессию со всеми вытекающими последствиями.

Качество: WEB-DL 1080p
Формат: MKV
Видео кодек: H.264
Аудио кодек: AC3

Видео: 1920x806 at 24.000 fps, MPEG-4 AVC, ~4435 kbps avg
Аудио#1: Russian: 48 kHz, AC3, 3/2 (L,C,R,l,r) + LFE ch, ~384.00 kbps avg
скриншот   скриншот   скриншот   скриншот   скриншот  

Общее
Уникальный идентификатор : 183227980041606654767044122356281539921 (0x89D86CE328B61F36A028EC1D242C7D51)
Полное имя : D:\Moglie.e.marito.2017.WEB-DL.1080p.Rus.mkv
Формат : Matroska
Версия формата : Version 4 / Version 2
Размер файла : 3,62 Гбайт
Продолжительность : 1 ч. 45 м.
Общий поток : 4917 Кбит/сек
Название фильма : NE_TVOE_TELO_WEB_DL_1080p-BLUEBIRD
Дата кодирования : UTC 2017-11-01 18:41:19
Программа кодирования : mkvmerge v6.9.1 ('Blue Panther') 32bit built on Apr 18 2014 18:15:44
Библиотека кодирования : libebml v1.3.0 + libmatroska v1.4.1

Видео
Идентификатор : 1
Формат : AVC
Формат/Информация : Advanced Video Codec
Профиль формата : High@L4
Параметр CABAC формата : Да
Параметр ReFrames формата : 5 кадров
Идентификатор кодека : V_MPEG4/ISO/AVC
Продолжительность : 1 ч. 45 м.
Битрейт : 4435 Кбит/сек
Ширина : 1920 пикселей
Высота : 806 пикселей
Соотношение сторон : 2,40:1
Режим частоты кадров : Постоянный
Частота кадров : 24,000 кадра/сек
Цветовое пространство : YUV
Субдискретизация насыщенности : 4:2:0
Битовая глубина : 8 бит
Тип развёртки : Прогрессивная
Бит/(Пиксели*Кадры) : 0.119
Размер потока : 3,26 Гбайт (90%)
Заголовок : NE_TVOE_TELO_WEB_DL_1080p-BLUEBIRD
Язык : English
Default : Да
Forced : Нет
Цветовой диапазон : Limited
Основные цвета : BT.709
Характеристики трансфера : BT.709
Коэффициенты матрицы : BT.709

Аудио
Идентификатор : 2
Формат : AC-3
Формат/Информация : Audio Coding 3
Расширение режима : CM (complete main)
Параметр Endianness формата : Big
Идентификатор кодека : A_AC3
Продолжительность : 1 ч. 45 м.
Вид битрейта : Постоянный
Битрейт : 384 Кбит/сек
Каналы : 6 каналов
Расположение каналов : Front: L C R, Side: L R, LFE
Частота : 48,0 КГц
Частота кадров : 31,250 кадров/сек (1536 spf)
Метод сжатия : С потерями
Размер потока : 289 Мбайт (8%)
Заголовок : [DUB] DD 5.1 @ 384 kbps (iTunes)
Язык : Russian
Default : Да
Forced : Нет

Меню
00:00:00.000 : en:Глава 1
00:06:20.208 : en:Глава 2
00:12:46.333 : en:Глава 3
00:18:18.833 : en:Глава 4
00:25:26.166 : en:Глава 5
00:30:07.874 : en:Глава 6
00:34:25.582 : en:Глава 7
00:41:17.498 : en:Глава 8
00:48:40.039 : en:Глава 9
00:55:15.664 : en:Глава 10
01:02:07.747 : en:Глава 11
01:10:01.080 : en:Глава 12
01:17:26.496 : en:Глава 13
01:25:56.912 : en:Глава 14
01:31:35.037 : en:Глава 15

pb.wtf



Скачать Не твоё тело через торрент http://s019.radikal.ru/i642/1711/fb/c14444af05f5.png Скачать фильм Не твоё тело через торрент бесплантно в хорошем качестве Описание: Что, если однажды вы поменяетесь телами с вашей второй половинкой? Об этом даже не задумывались Андреа и София. Если бы не один ... 9 10 11
Info! Золотая раздача, скачанное не засчитывается.
Торрент: Зарегистрирован [2017-11-02 04:28] · скачан: 333 раз
Статус: √ проверено
Размер: 3.62 GB
Как cкачать? Как скачать Не твоё тело через торрент | qTorrent

% Раздел Тема Автор DL S | L
Фильмы 2017 [DVDrip, WEB-DLRip, HDrip] (DUB, MVO) [ 1.41 GB ] Не твоё тело / Moglie e marito [2017 BDRip] - Twi7ter Скачать
1 | 0
Фильмы (Blu-ray, BD-Remux, HDDVD) [ 17.58 GB ] Не твоё тело / Moglie e marito [2017 BD Remux 1080p] bober100 Скачать
1 | 0
Фильмы 2017 [DVDrip, WEB-DLRip, HDrip] (DUB, MVO) [ 746 MB ] Не твоё тело / Moglie e marito [2017 HDRip] bober100 Скачать
2 | 0
Фильмы 2017 [DVDrip, WEB-DLRip, HDrip] (DUB, MVO) [ 1.46 GB ] Не твоё тело / Moglie e marito [2017 HDRip] bober100 Скачать
1 | 0

28-11-2019 20:33  

Отключить всю рекламу на сайте

10-11-2017 17:08 Не твоё тело Скачать торрент  

дажо очень ничего такое кино...pb.wtf



    Дорогой пользователь! Огромная просьба, поблагодарите релизера, оцените раздачу и оставьте свои комментарий, если Вы скачали Не твоё тело через торрент бесплатно! Внесите свою лепту в развитие PiratBit!
    Комментировать посты могут только пользователи прошедшие не сложную регистрацию
    Показать сообщения:    

    Не твоё тело через торрент
    Скачать бесплатно Не твоё тело
    Не твоё тело скачать торрент
    Не твоё тело смотреть онлайн
    Cкачать фильм Не твоё тело бесплатно
    Не твоё тело скачать торрент в хорошем качестве
    Не твоё тело смотреть онлайн бесплатно в хорошем качестве


    Вы не можете начинать темы
    Вы не можете отвечать на сообщения
    Вы не можете редактировать свои сообщения
    Вы не можете удалять свои сообщения
    Вы не можете голосовать в опросах
    Вы не можете прикреплять файлы к сообщениям
    Вы можете скачивать файлы