Ссылка на приватное зеркало нашего сайта всего за 1$. Внимание количество ограничено!!!

2 сезон

iTunes

1 сезон

1

2 сезон

2 сезон

iTunes

1 сезон

RePack

30

Новинка

ВАЖНО

ИГРА 18+

pack

RePack

MK11
pack

Забери бонус

RePack

jed

!!Акция!!

Alien_Rage

RePack

fifa19

RePack

Assassins Creed: Odyssey

RePack

NEED FOR SPEED™ PAYBACK

4 сезон

9 сезон

Бесстыжие 9 сезон

Все сериалы

все сериалы на PB.wtf

RePack

FAR CRY 5
  

Кумико – охотница за сокровищами / Kumiko, the Treasure Hunter (Дэвид Зеллнер) [2014, драма, BDRip 720p от еnvy / NNNB] Любительский (двухголосый, закадровый) PiratVoice pb.wtf

Кумико – охотница за сокровищами через торрент pb.wtf

Раздают: 1 [ 0 KB/s ] Качают: 1 [ 0 KB/s ]
Размер: 4.37 GB | Добавлен: 3 года назад | Торрент скачан:83 раза
Скачать  

02-11-2017 08:00 Кумико – охотница за сокровищами Скачать торрент  

Информация о фильме

Русское название: Кумико – охотница за сокровищами
Оригинальное название: Kumiko, the Treasure Hunter
Год выхода: 2014
Жанр: драма
Режиссер: Дэвид Зеллнер
Выпущено: США
Продолжительность: 01:44:28
Перевод: Любительский (двухголосый, закадровый) PiratVoice
В ролях: Ринко Кикути, Нобуюки Кацубэ, Ширли Венард, Дэвид Зеллнер, Нэйтан Зеллнер, Канако Хигаси, Каку Итикё, Аяка Ониси, Маюко Кавакита, Такао Киносита
Описание:

Кумико живёт в захламлённой, тесной квартире в Токио со своим питомцем — кроликом по имени Бунзо. Она работает в офисе, в котором механически готовит чай и ходит в химчистку для своего недалёкого босса. В своё свободное время она упоенно смотрит известный американский фильм на затёртой видео-кассете. Перематывая назад и вперёд, она педантично пытается определить место, где выброшенный на берег дипломат с награбленным добром оказался закопанным по сюжету фильма. После долгих часов изучения, убеждённая, что ей судьбой предназначено найти эти деньги, Кумико отправляется на его поиски в США, в суровую зиму Миннесоты.


Файл

Качество: BDRip 720p (исходник Blu-Ray Disc Remux 1080p)
Контейнер: MKV (расширение файла)
Видео: 1280x540, 4710 Кбит/сек, 23,976 кадр/сек, AVC, x264, High@L4.1, 2.40:1, 0.284 Бит/[Пиксели*Кадры]
Аудио 1: AC-3, 640 Кбит/сек, 6 канала(ов), 48,0 КГц - Двухголосый закадровый, PiratVoice / Русский
Аудио 2: AC-3, 640 Кбит/сек, 6 канала(ов), 48,0 КГц - Оригинал / Английский
Субтитры: Русские | Полные, Английские | Полные
Форсированные субтитры: Нет
Чаптеры (Главы): Есть
Дополнительная информация: Вшитые английские субтитры – на японскую речь. Для ознакомления с озвучиванием фильма скачайте сэмпл.
Озвучено по субтитрам Павла Жукова aka Bugman группой PiratVoice






Автор Рипа: Группа: Озвучка:


Format : Matroska
Format version : Version 2
File size : 4.37 GiB
Duration : 1 h 44 min
Overall bit rate : 5 991 kb/s
Movie name : Kumiko, the Treasure Hunter.(2014).BDRip.720p.[envy]
Encoded date : UTC 2017-11-01 09:56:11
Writing application : mkvmerge v5.8.0 ('No Sleep / Pillow') built on Sep 2 2012 15:37:04
Writing library : libebml v1.2.3 + libmatroska v1.3.0

Video
ID : 1
Format : AVC
Format/Info : Advanced Video Codec
Format profile : High@L4.1
Format settings, CABAC : Yes
Format settings, RefFrames : 11 frames
Codec ID : V_MPEG4/ISO/AVC
Duration : 1 h 44 min
Bit rate : 4 710 kb/s
Width : 1 280 pixels
Height : 540 pixels
Display aspect ratio : 2.40:1
Frame rate mode : Constant
Frame rate : 23.976 (24000/1001) FPS
Color space : YUV
Chroma subsampling : 4:2:0
Bit depth : 8 bits
Scan type : Progressive
Bits/(Pixel*Frame) : 0.284
Stream size : 3.35 GiB (77%)
Title : Kumiko, the Treasure Hunter.(2014).BDRip.720p.[envy]
Writing library : x264 core 148 r2744 b97ae06
Encoding settings : cabac=1 / ref=11 / deblock=1:-3:-3 / analyse=0x3:0x113 / me=umh / subme=11 / psy=1 / psy_rd=1.00:0.00 / mixed_ref=1 / me_range=32 / chroma_me=1 / trellis=2 / 8x8dct=1 / cqm=0 / deadzone=21,11 / fast_pskip=0 / chroma_qp_offset=-2 / threads=12 / lookahead_threads=1 / sliced_threads=0 / nr=0 / decimate=1 / interlaced=0 / bluray_compat=0 / constrained_intra=0 / bframes=5 / b_pyramid=2 / b_adapt=2 / b_bias=0 / direct=3 / weightb=1 / open_gop=0 / weightp=2 / keyint=240 / keyint_min=23 / scenecut=40 / intra_refresh=0 / rc=2pass / mbtree=0 / bitrate=4710 / ratetol=1.0 / qcomp=0.60 / qpmin=0 / qpmax=69 / qpstep=4 / cplxblur=20.0 / qblur=0.5 / ip_ratio=1.40 / pb_ratio=1.30 / aq=1:0.80
Language : English
Default : Yes
Forced : No

Audio #1
ID : 2
Format : AC-3
Format/Info : Audio Coding 3
Format settings, Endianness : Big
Codec ID : A_AC3
Duration : 1 h 44 min
Bit rate mode : Constant
Bit rate : 640 kb/s
Channel(s) : 6 channels
Channel positions : Front: L C R, Side: L R, LFE
Sampling rate : 48.0 kHz
Frame rate : 31.250 FPS (1536 SPF)
Bit depth : 16 bits
Compression mode : Lossy
Stream size : 478 MiB (11%)
Title : PiratVoice
Language : Russian
Service kind : Complete Main
Default : Yes
Forced : No

Audio #2
ID : 3
Format : AC-3
Format/Info : Audio Coding 3
Format settings, Endianness : Big
Codec ID : A_AC3
Duration : 1 h 44 min
Bit rate mode : Constant
Bit rate : 640 kb/s
Channel(s) : 6 channels
Channel positions : Front: L C R, Side: L R, LFE
Sampling rate : 48.0 kHz
Frame rate : 31.250 FPS (1536 SPF)
Bit depth : 16 bits
Compression mode : Lossy
Stream size : 478 MiB (11%)
Title : Eng
Language : English
Service kind : Complete Main
Default : No
Forced : No

Text #1
ID : 4
Format : UTF-8
Codec ID : S_TEXT/UTF8
Codec ID/Info : UTF-8 Plain Text
Title : Rus full (Павел Жуков aka Bugman)
Language : Russian
Default : No
Forced : No

Text #2
ID : 5
Format : UTF-8
Codec ID : S_TEXT/UTF8
Codec ID/Info : UTF-8 Plain Text
Title : Eng full
Language : English
Default : No
Forced : No

Menu
00:00:00.000 : :00:00:00.000
00:04:54.794 : :00:04:54.794
00:15:43.860 : :00:15:43.860
00:23:23.777 : :00:23:23.777
00:32:31.908 : :00:32:31.908
00:43:26.270 : :00:43:26.270
00:51:07.439 : :00:51:07.439
00:58:31.466 : :00:58:31.466
01:08:31.357 : :01:08:31.357
01:25:01.221 : :01:25:01.221
01:34:48.182 : :01:34:48.182
01:39:25.376 : :01:39:25.376

pb.wtf



Скачать Кумико – охотница за сокровищами через торрент http://img12.lostpic.net/2017/10/31/5fa1eea4b59e7e90a4be83cde7ecc558.png Скачать фильм Кумико – охотница за сокровищами через торрент бесплантно в хорошем качестве Описание:Кумико живёт в захламлённой, тесной квартире в Токио со своим питомцем — кроликом по имени Бунзо. Она работает в офисе, в котором ... 9.5 10 2
Info! Золотая раздача, скачанное не засчитывается.
Торрент: Зарегистрирован [2017-11-02 08:00] · скачан: 83 раз
Статус: √ проверено
Размер: 4.37 GB
Как cкачать? Как скачать Кумико – охотница за сокровищами через торрент | qTorrent

% Раздел Тема Автор DL S | L
Фильмы 2014 (Звук TS, Cam, VO, DVO) [ 1.46 GB ] Кумико – охотница за сокровищами / Kumiko the Treasure Hunter [2014 HDRip] Любительский PiratVoice - ExKinoRay Enigma2010 Скачать
1 | 0
Фильмы [HD 720p, 1080p] (Хороший звук DUB, MVO) [ 7.76 GB ] Кумико – охотница за сокровищами / Kumiko the Treasure Hunter [2014 BDRip 1080p от еnvy / NNNB] Любительский PiratVoice еnvy Скачать
3 | 0

28-11-2019 20:33  

Отключить всю рекламу на сайте

    Дорогой пользователь! Огромная просьба, поблагодарите релизера, оцените раздачу и оставьте свои комментарий, если Вы скачали Кумико – охотница за сокровищами через торрент бесплатно! Внесите свою лепту в развитие PiratBit!
    Комментировать посты могут только пользователи прошедшие не сложную регистрацию
    Показать сообщения:    

    Кумико – охотница за сокровищами через торрент
    Скачать бесплатно Кумико – охотница за сокровищами
    Кумико – охотница за сокровищами скачать торрент
    Кумико – охотница за сокровищами смотреть онлайн
    Cкачать фильм Кумико – охотница за сокровищами бесплатно
    Кумико – охотница за сокровищами скачать торрент в хорошем качестве
    Кумико – охотница за сокровищами смотреть онлайн бесплатно в хорошем качестве


    Вы не можете начинать темы
    Вы не можете отвечать на сообщения
    Вы не можете редактировать свои сообщения
    Вы не можете удалять свои сообщения
    Вы не можете голосовать в опросах
    Вы не можете прикреплять файлы к сообщениям
    Вы можете скачивать файлы