Ссылка на приватное зеркало нашего сайта всего за 1$. Внимание количество ограничено!!!

2 сезон

iTunes

1 сезон

1

2 сезон

2 сезон

iTunes

1 сезон

RePack

30

Ultimate

ВАЖНО

ИГРА 18+

pack

RePack

MK11
pack

Забери бонус

RePack

jed

!!Акция!!

Alien_Rage

RePack

fifa19

RePack

Assassins Creed: Odyssey

RePack

NEED FOR SPEED™ PAYBACK

4 сезон

9 сезон

Бесстыжие 9 сезон

Все сериалы

все сериалы на PB.wtf

RePack

FAR CRY 5
  

Дело о пеликанах / The Pelican Brief (Алан Дж. Пакула) [1993, Триллер, детектив, драма, BD Remux 1080p] DUB+MVO+AVO pb.wtf

Дело о пеликанах через торрент pb.wtf

Размер: 17.41 GB | Добавлен: 3 года 1 мес. назад | Торрент скачан:17 раз
Скачать  

02-11-2017 15:11 Дело о пеликанах Скачать торрент  

Дело о пеликанах / The Pelican BriefГод выпуска: 1993
Страна: США
Жанр: Триллер, детектив, драма
Продолжительность: 02:21:09
Перевод: Дубляж, профессиональный многоголосый, авторский
Субтитры: Русские, английские

Режиссер: Алан Дж. Пакула

rating

В ролях:

Джулия Робертс, Дензел Вашингтон, Сэм Шепард, Джон Хёрд, Тони Голдуин, Джеймс Сиккинг, Уильям Этертон, Роберт Калп, Стэнли Туччи, Хьюм Кронин, Джон Литгоу, Энтони Хилд, Николас Вудесон, Стэнли Андерсон, Джон Финн, Синтия Никсон, Джейк Уэбер, Кейси Биггз, Кристофер Мюррэй, Сонни Джим Гейнс, Кевин Гир, Джо Крест, Ричард Бауэр, Мишель О`Нейлл, Питер Карлин, Ральф Косхэм, Карл Палмер, Терренс Куррье, Эдвин Ньюман, Хелен Кэри, Ховард Шэлвиц, Кайл Прю, Джуэлл Робинсон, Ким Питер Ковач, Норман Аронович, Джин Бабб, Кэрол Саттон, Скотт Джеффресон, Дэнни Камин, Марк МакЛафлин, Роберт Павлочич, Маджи Хикки, Ким Кеттл, Элли К. Ванг

Описание:

Экранизация одноименного бестселлера Джона Гришема ("Фирма", "Клиент"). Убиты два члена Верховного суда Соединенных Штатов. Студентка юридического факультета Дарби Шоу пишет работу, в которой называет возможные причины убийства и предполагаемых организаторов. Далекая от политики девушка неожиданно попадает "в десятку", а собранные ею материалы становятся желанной добычей для очень многих сильных мира сего. Вмешательство ФБР не останавливает убийц, готовых на крайности для обеспечения своей безопасности. За Дарби начинается настоящая охота: ее знакомые взрываются в автомобилях, в ее квартире все перевернуто вверх дном, а компьютер похищен. Любой, кого девушка просит о помощи, погибает...

Качество: BD Remux 1080p
Формат: MKV
Видео кодек: VC-1
Аудио кодек: AC3

Видео: 15380 Кбит/с, 1920x1080, 23.976 кадр/с
Аудио#1: Русский AC3 5.1, 48 KHz, 384 kbps - Дубляж
Аудио#2: Русский AC3 2.0, 48 KHz, 192 kbps - Профессиональный многоголосый
Аудио#3: Русский AC3 2.0, 48 KHz, 192 kbps - Авторский (Михалёв)
Аудио#4: Английский DTS 5.1, 48 KHz, 1536 kbps - Оригинал
скриншот   скриншот   скриншот   скриншот   скриншот   скриншот  

Общее
Уникальный идентификатор : 173648625484478642124108506446668515713 (0x82A3823E3DBA55D58776A626B1344981)
Полное имя : D:\РЕМУКС!!!!!\№1\Дело о пеликанах.BDRemux..mkv
Формат : Matroska
Версия формата : Version 4 / Version 2
Размер файла : 17,4 Гбайт
Продолжительность : 2 ч. 21 м.
Общий поток : 17,7 Мбит/сек
Название фильма : Дело о пеликанах.BDRemux.thx:SPOMOPS.
Дата кодирования : UTC 2016-02-04 06:01:28
Программа кодирования : mkvmerge v6.1.0 ('Old Devil') built on Mar 4 2013 09:10:42
Библиотека кодирования : libebml v1.3.0 + libmatroska v1.4.0

Видео
Идентификатор : 1
Формат : VC-1
Профиль формата : Advanced@L3
Идентификатор кодека : V_MS/VFW/FOURCC / WVC1
Идентификатор кодека/Подсказка : Microsoft
Продолжительность : 2 ч. 21 м.
Битрейт : 15,0 Мбит/сек
Ширина : 1920 пикселей
Высота : 1080 пикселей
Соотношение сторон : 16:9
Режим частоты кадров : Постоянный
Частота кадров : 23,976 (24000/1001) кадра/сек
Цветовое пространство : YUV
Субдискретизация насыщенности : 4:2:0
Битовая глубина : 8 бит
Тип развёртки : Прогрессивная
Метод сжатия : С потерями
Бит/(Пиксели*Кадры) : 0.302
Размер потока : 14,8 Гбайт (85%)
Язык : English
Default : Да
Forced : Нет

Аудио #1
Идентификатор : 2
Формат : AC-3
Формат/Информация : Audio Coding 3
Параметр Endianness формата : Big
Идентификатор кодека : A_AC3
Продолжительность : 2 ч. 21 м.
Вид битрейта : Постоянный
Битрейт : 384 Кбит/сек
Каналы : 6 каналов
Расположение каналов : Front: L C R, Side: L R, LFE
Частота : 48,0 КГц
Частота кадров : 31,250 кадров/сек (1536 SPF)
Битовая глубина : 16 бит
Метод сжатия : С потерями
Размер потока : 388 Мбайт (2%)
Заголовок : Русский AC3 384 kbps - Дубляж
Язык : Russian
ServiceKind/String : Complete Main
Default : Да
Forced : Нет

Аудио #2
Идентификатор : 3
Формат : AC-3
Формат/Информация : Audio Coding 3
Параметр Endianness формата : Big
Идентификатор кодека : A_AC3
Продолжительность : 2 ч. 21 м.
Вид битрейта : Постоянный
Битрейт : 192 Кбит/сек
Каналы : 2 канала
Расположение каналов : Front: L R
Частота : 48,0 КГц
Частота кадров : 31,250 кадров/сек (1536 SPF)
Битовая глубина : 16 бит
Метод сжатия : С потерями
Размер потока : 194 Мбайт (1%)
Заголовок : Русский AC3 192 kbps - ПМ
Язык : Russian
ServiceKind/String : Complete Main
Default : Нет
Forced : Нет

Аудио #3
Идентификатор : 4
Формат : AC-3
Формат/Информация : Audio Coding 3
Параметр Endianness формата : Big
Идентификатор кодека : A_AC3
Продолжительность : 2 ч. 21 м.
Вид битрейта : Постоянный
Битрейт : 192 Кбит/сек
Каналы : 2 канала
Расположение каналов : Front: L R
Частота : 48,0 КГц
Частота кадров : 31,250 кадров/сек (1536 SPF)
Битовая глубина : 16 бит
Метод сжатия : С потерями
Размер потока : 194 Мбайт (1%)
Заголовок : Русский AC3 192 kbps - А.Михалёв
Язык : Russian
ServiceKind/String : Complete Main
Default : Нет
Forced : Нет

Аудио #4
Идентификатор : 5
Формат : DTS
Формат/Информация : Digital Theater Systems
Режим : 16
Параметр Endianness формата : Big
Идентификатор кодека : A_DTS
Продолжительность : 2 ч. 21 м.
Вид битрейта : Постоянный
Битрейт : 1510 Кбит/сек
Каналы : 6 каналов
Расположение каналов : Front: L C R, Side: L R, LFE
Частота : 48,0 КГц
Частота кадров : 93,750 кадра/сек (512 SPF)
Битовая глубина : 24 бит
Метод сжатия : С потерями
Размер потока : 1,49 Гбайт (9%)
Заголовок : Английский DTS 1536 kbps - Оригинал
Язык : English
Default : Нет
Forced : Нет

Текст #1
Идентификатор : 6
Формат : UTF-8
Идентификатор кодека : S_TEXT/UTF8
Идентификатор кодека/Информация : UTF-8 Plain Text
Язык : Russian
Default : Нет
Forced : Нет

Текст #2
Идентификатор : 7
Формат : UTF-8
Идентификатор кодека : S_TEXT/UTF8
Идентификатор кодека/Информация : UTF-8 Plain Text
Язык : English
Default : Нет
Forced : Нет

Меню
00:00:00.000 : :Credits
00:02:32.986 : :Rosenberg's View
00:04:20.343 : :Rendezvous in Shadows
00:07:47.509 : :Rights and Rites of Privacy
00:09:48.338 : :Death Strikes Twice
00:13:42.155 : :Rally 'Round the Leader Time
00:16:25.902 : :What to Look For
00:20:04.245 : :A Girlfriend With a Theory
00:26:26.585 : :Grantham's Source
00:29:42.823 : :Coal's Source
00:33:19.998 : :Taking Callahan's Breath Away
00:36:28.228 : :Alone in Crowds
00:41:22.814 : :Discussing Dog Tricks
00:43:16.177 : :On the Run
00:45:32.146 : :"Her Little Brief..."
00:47:41.984 : :"Garcia" and "Alice" Call
00:51:00.140 : :The Saddest Girl in the Quarter
00:55:29.159 : :Khamel's New Assignment
00:57:17.309 : :Out of the Closet
01:01:44.743 : :Holding Hands With Death
01:05:48.611 : :Grantham Takes His Chances
01:09:54.399 : :Comparing Notes in the Back Seat
01:11:09.432 : :One Piece of Common Ground
01:17:38.153 : :Reaching Deep and High
01:21:08.155 : :Suppositions Worth Exploring
01:23:41.934 : :Joint Research
01:26:52.749 : :Briefing the President
01:29:32.784 : :George and Martha's Place
01:31:36.491 : :Burgled and Shadowed
01:34:03.137 : :Detective Work
01:37:08.698 : :Linney Hallucinates
01:40:41.953 : :A Missed Appointment
01:43:52.059 : :"I Want You to Reach 25"
01:45:39.458 : :A Secret Key
01:50:08.227 : :Stalkers at the Bank
01:55:06.608 : :Parking Garage Assassins
02:00:11.871 : :Dead Man's Legacy
02:03:07.505 : :A Breaking Story
02:05:17.635 : :A Deal With the FBI
02:10:59.643 : :Flight by Night
02:14:45.577 : :Who Is Darby Shaw?

pb.wtf



Скачать Дело о пеликанах через торрент http://s018.radikal.ru/i519/1711/e5/a0266a5045ad.jpg Скачать фильм Дело о пеликанах через торрент бесплантно в хорошем качестве Описание: Экранизация одноименного бестселлера Джона Гришема ("Фирма", "Клиент"). Убиты два члена Верховного суда Соединенных Штатов. ... 10 10 3
Info! Серебряная раздача, засчитывается только 50% скачанного.
Торрент: Зарегистрирован [2017-11-02 15:11] · скачан: 17 раз
Статус: √ проверено
Размер: 17.41 GB
Как cкачать? Как скачать Дело о пеликанах через торрент | qTorrent

% Раздел Тема Автор DL S | L
Фильмы [HD 720p, 1080p] (Хороший звук DUB, MVO) [ 14.42 GB ] Дело о пеликанах / The Pelican Brief [1993 BDRip 1080p by msltel] 2 x DUB 2 x MVO 2 x AVO msltel Скачать
1 | 0
Фильмы [HD 720p, 1080p] (Хороший звук DUB, MVO) [ 6.08 GB ] Дело о пеликанах / The Pelican Brief [1993 BDRip 720p by msltel] 2 x DUB 2 x MVO 2 x AVO msltel Скачать
2 | 0

28-11-2019 20:33  

Отключить всю рекламу на сайте

    Дорогой пользователь! Огромная просьба, поблагодарите релизера, оцените раздачу и оставьте свои комментарий, если Вы скачали Дело о пеликанах через торрент бесплатно! Внесите свою лепту в развитие PiratBit!
    Комментировать посты могут только пользователи прошедшие не сложную регистрацию
    Показать сообщения:    

    Дело о пеликанах через торрент
    Скачать бесплатно Дело о пеликанах
    Дело о пеликанах скачать торрент
    Дело о пеликанах смотреть онлайн
    Cкачать фильм Дело о пеликанах бесплатно
    Дело о пеликанах скачать торрент в хорошем качестве
    Дело о пеликанах смотреть онлайн бесплатно в хорошем качестве


    Вы не можете начинать темы
    Вы не можете отвечать на сообщения
    Вы не можете редактировать свои сообщения
    Вы не можете удалять свои сообщения
    Вы не можете голосовать в опросах
    Вы не можете прикреплять файлы к сообщениям
    Вы можете скачивать файлы