Ссылка на приватное зеркало нашего сайта всего за 1$. Внимание количество ограничено!!!

2 сезон

iTunes

1 сезон

1

2 сезон

2 сезон

iTunes

1 сезон

RePack

30

Ultimate

ВАЖНО

ИГРА 18+

pack

RePack

MK11
pack

Забери бонус

RePack

jed

!!Акция!!

Alien_Rage

RePack

fifa19

RePack

Assassins Creed: Odyssey

RePack

NEED FOR SPEED™ PAYBACK

4 сезон

9 сезон

Бесстыжие 9 сезон

Все сериалы

все сериалы на PB.wtf

RePack

FAR CRY 5
  

Байки из склепа: Кровавый бордель / Tales from the Crypt: Bordello of Blood (Гилберт Адлер) [1996, Ужасы, фэнтези, комедия, BD Remux 1080p] MVO+AVO pb.wtf

Байки из склепа: Кровавый бордель через торрент pb.wtf

Размер: 20.65 GB | Добавлен: 3 года назад | Торрент скачан:9 раз
Скачать  

02-11-2017 16:56 Байки из склепа: Кровавый бордель Скачать торрент  

Байки из склепа: Кровавый бордель /
Tales from the Crypt: Bordello of Blood
Год выпуска: 1996
Страна: США
Жанр: Ужасы, фэнтези, комедия
Продолжительность: 01:26:32
Перевод: Профессиональный многоголосый, авторский
Субтитры: Английские (PGS)

Режиссер: Гилберт Адлер

rating

В ролях:

Джон Кассир, Дэннис Миллер, Эрика Элениак, Энджи Эверхарт, Крис Сарандон, Кори Фельдман, Обри Моррис, Фил Фондакаро, Уильям Сэдлер, Киара Хантер

Описание:

Мадам Лилит и ее сексапильные помощницы содержат очень необычный бордель на окраине города. Они берут за услуги не только деньги, но и высасывают из клиентов кровь до последней капли.

Хитроватый пройдоха Рэйф Гэттмен тоже попадает в эту переделку и оказывается один на один с дюжиной кровавых вампиров и, мало того, с его Преподобием Джимми Кэррентом, проходимцем, обладающим всемогущим талисманом.

Качество: BD Remux 1080p
Формат: MKV
Видео кодек: H.264
Аудио кодек: AC3

Видео: 31.4 Мбит/с, 1920x1080, 23.976 кадр/с
Аудио#1: Русский Dolby Digital Audio 192 kbps 2.0 / 48 kHz / 192 kbps - Профессиональный многоголосый (Премьер-видео)
Аудио#2: Русский Dolby Digital Audio 448 kbps 5.1 / 48 kHz / 448 kbps / DN -4dB - Авторский (Живов)
Аудио#3: Английский DTS-HD Master Audio 2101 kbps 5.1 / 48 kHz / 2101 kbps / 16-bit (DTS Core: 5.1 / 48 kHz / 1509 kbps / 16-bit) - Оригинал
скриншот   скриншот   скриншот   скриншот   скриншот   скриншот  

Общее
Уникальный идентификатор : 170284947668402561725093293617362332686 (0x801BB01F694D7E2485B7D0C9D7856C0E)
Полное имя : Z:\HD Video\Bordello.Of.Blood.1996.BDRemux.1080p.mkv
Формат : Matroska
Версия формата : Version 4 / Version 2
Размер файла : 20,6 Гбайт
Продолжительность : 1 ч. 26 м.
Режим общего битрейта : Переменный
Общий поток : 34,1 Мбит/сек
Дата кодирования : UTC 2017-10-30 13:46:09
Программа кодирования : mkvmerge v17.0.0 ('Be Ur Friend') 64-bit
Библиотека кодирования : libebml v1.3.5 + libmatroska v1.4.8

Видео
Идентификатор : 1
Формат : AVC
Формат/Информация : Advanced Video Codec
Профиль формата : High@L4.1
Настройки формата : CABAC / 4 Ref Frames
Параметр CABAC формата : Да
Параметр RefFrames формата : 4 кадра
Параметр GOP формата : M=4, N=24
Идентификатор кодека : V_MPEG4/ISO/AVC
Продолжительность : 1 ч. 26 м.
Вид битрейта : Переменный
Битрейт : 31,4 Мбит/сек
Максимальный битрейт : 37,0 Мбит/сек
Ширина : 1920 пикселей
Высота : 1080 пикселей
Соотношение сторон : 16:9
Режим частоты кадров : Постоянный
Частота кадров : 23,976 (24000/1001) кадра/сек
Стандарт вещания : NTSC
Цветовое пространство : YUV
Субдискретизация насыщенности : 4:2:0
Битовая глубина : 8 бит
Тип развёртки : Прогрессивная
Бит/(Пиксели*Кадры) : 0.631
Размер потока : 19,0 Гбайт (92%)
Заголовок : Bordello.Of.Blood.1996.BDRemux.1080p
Default : Да
Forced : Нет
Цветовой диапазон : Limited
Основные цвета : BT.709
Характеристики трансфера : BT.709
Коэффициенты матрицы : BT.709

Аудио #1
Идентификатор : 2
Формат : AC-3
Формат/Информация : Audio Coding 3
Параметр Endianness формата : Big
Идентификатор кодека : A_AC3
Продолжительность : 1 ч. 26 м.
Вид битрейта : Постоянный
Битрейт : 192 Кбит/сек
Каналы : 2 канала
Расположение каналов : Front: L R
Частота : 48,0 КГц
Частота кадров : 31,250 кадров/сек (1536 SPF)
Битовая глубина : 16 бит
Метод сжатия : С потерями
Размер потока : 119 Мбайт (1%)
Заголовок : AC-3 Премьер-видео
Язык : Russian
ServiceKind/String : Complete Main
Default : Да
Forced : Нет

Аудио #2
Идентификатор : 3
Формат : AC-3
Формат/Информация : Audio Coding 3
Параметр Endianness формата : Big
Идентификатор кодека : A_AC3
Продолжительность : 1 ч. 26 м.
Вид битрейта : Постоянный
Битрейт : 448 Кбит/сек
Каналы : 6 каналов
Расположение каналов : Front: L C R, Side: L R, LFE
Частота : 48,0 КГц
Частота кадров : 31,250 кадров/сек (1536 SPF)
Битовая глубина : 16 бит
Метод сжатия : С потерями
Размер потока : 277 Мбайт (1%)
Заголовок : AC-3 Живов Юрий
Язык : Russian
ServiceKind/String : Complete Main
Default : Нет
Forced : Нет

Аудио #3
Идентификатор : 4
Формат : DTS
Формат/Информация : Digital Theater Systems
Профиль формата : MA / Core
Режим : 16
Параметр Endianness формата : Big
Идентификатор кодека : A_DTS
Продолжительность : 1 ч. 26 м.
Вид битрейта : Переменный / Постоянный
Битрейт : 2101 Кбит/сек / 1509 Кбит/сек
Каналы : 6 каналов
Расположение каналов : Front: L C R, Side: L R, LFE
Частота : 48,0 КГц
Частота кадров : 93,750 кадра/сек (512 SPF)
Битовая глубина : 16 бит
Метод сжатия : Без потерь / Lossy
Размер потока : 1,27 Гбайт (6%)
Заголовок : DTS-HD MA Original
Язык : English
Default : Нет
Forced : Нет

Текст
Идентификатор : 5
Формат : PGS
Режим смешивания : zlib
Идентификатор кодека : S_HDMV/PGS
Идентификатор кодека/Информация : Picture based subtitle format used on BDs/HD-DVDs
Продолжительность : 1 ч. 25 м.
Битрейт : 58,1 Кбит/сек
ElementCount : 2559
Размер потока : 35,6 Мбайт (0%)
Заголовок : English
Язык : English
Default : Да
Forced : Нет

pb.wtf



Скачать Байки из склепа: Кровавый бордель через торрент http://s011.radikal.ru/i315/1711/06/83ac4d4512dd.jpg Скачать фильм Байки из склепа: Кровавый бордель через торрент бесплантно в хорошем качестве Описание: Мадам Лилит и ее сексапильные помощницы содержат очень необычный бордель на окраине города. Они берут за услуги не только деньги, ... 10 10 2
Торрент: Зарегистрирован [2017-11-02 16:56] · скачан: 9 раз
Статус: √ проверено
Размер: 20.65 GB
Как cкачать? Как скачать Байки из склепа: Кровавый бордель через торрент | qTorrent

28-11-2019 20:33  

Отключить всю рекламу на сайте

    Дорогой пользователь! Огромная просьба, поблагодарите релизера, оцените раздачу и оставьте свои комментарий, если Вы скачали Байки из склепа: Кровавый бордель через торрент бесплатно! Внесите свою лепту в развитие PiratBit!
    Комментировать посты могут только пользователи прошедшие не сложную регистрацию
    Показать сообщения:    

    Байки из склепа: Кровавый бордель через торрент
    Скачать бесплатно Байки из склепа: Кровавый бордель
    Байки из склепа: Кровавый бордель скачать торрент
    Байки из склепа: Кровавый бордель смотреть онлайн
    Cкачать фильм Байки из склепа: Кровавый бордель бесплатно
    Байки из склепа: Кровавый бордель скачать торрент в хорошем качестве
    Байки из склепа: Кровавый бордель смотреть онлайн бесплатно в хорошем качестве


    Вы не можете начинать темы
    Вы не можете отвечать на сообщения
    Вы не можете редактировать свои сообщения
    Вы не можете удалять свои сообщения
    Вы не можете голосовать в опросах
    Вы не можете прикреплять файлы к сообщениям
    Вы можете скачивать файлы