Ссылка на приватное зеркало нашего сайта всего за 1$. Внимание количество ограничено!!!

2 сезон

iTunes

1 сезон

1

2 сезон

2 сезон

iTunes

1 сезон

RePack

30

Ultimate

ВАЖНО

ИГРА 18+

pack

RePack

MK11
pack

Забери бонус

RePack

jed

!!Акция!!

Alien_Rage

RePack

fifa19

RePack

Assassins Creed: Odyssey

RePack

NEED FOR SPEED™ PAYBACK

4 сезон

9 сезон

Бесстыжие 9 сезон

Все сериалы

все сериалы на PB.wtf

RePack

FAR CRY 5
  

9J, 9K и 9L / 9JKL / Сезон: 1 / Серии 1-16 из 16 (Памела Фрайман) [2017, США, Комедия, WEBRip 720p] MVO [BaibaKo] pb.wtf

9J, 9K и 9L через торрент pb.wtf

Размер: 11.09 GB | Добавлен: 2 года 9 мес. назад | Торрент скачан:5 раз
Скачать  

02-11-2017 23:36 9J, 9K и 9L Скачать торрент  


9J, 9K и 9L / 9JKL



  • Год выпуска: 2017
  • Страна: США
  • Жанр: Комедия
  • Продолжительность: ~ 00:20:00 (Серия)
  • Перевод: Профессиональный многоголосый [BaibaKo]
  • Режиссер: Памела Фрайман
  • В ролях:
    Марк Фойерстин, Эллиотт Гулд, Лиза Лапира, Линда Лавин, Мэтт Мюррэй, Альберт Цай, Дэвид Уолтон, Хана Хэйес, Фернандо Мартинес и др.


  • Ох уж эти семейные отношения! Порой сложно бывает договориться даже с близкими людьми. Кто бы что ни говорил, но иногда сложные отношения между близкими людьми куда труднее нормализовать! В центре внимания истории оказывается главный герой — простой молодой парень Джош, который проживает в квартире под номером 9K. Всё бы ничего, но только рядом с ним в квартире 9J живут его родители, которые покоя не дают ни днём, ни ночью. В 9L проживают брат с женой, у которых тоже напряжённые отношения. Жизнь семейная приходит в личную жизнь молодого человека. Ему не до смеха! Но что не сделаешь ради семейного благополучия!
  • Качество: WEBRip 720p
  • Формат: :MKV
  • Видео кодек: AVC
  • Аудио кодек: AC3
  • Видео: 4121 Кбит/сек, 1280*720 (16:9), в 23,976 (23976/1000) кадра/сек, AVC
  • Аудио №1: русский 384 Кбит/сек, 48,0 КГц, 16 бит, 6 каналов, AC-3 |[BaibaKo]|
  • Аудио №2: английский 384 Кбит/сек, 48,0 КГц, 16 бит, 6 каналов, AC-3
  • Релиз от: GEKADOL

    Внимание! Раздача ведётся путём добавления новых серий; при каждом добавлении создаётся новый торрент. Чтобы начать докачку новой серии, пользователям необходимо сделать следующее:
    (1) остановить скачивание,
    (2) удалить старый торрент у себя из клиента (старые серии удалять не надо),
    (3) скачать новый торрент и запустить его у себя в клиенте вместо старого, при этом указать клиенту путь в старую папку куда и должно происходить скачивание новых серий.
    Ваш клиент при этом должен произвести хеширование (проверку) старой папки (если не производит сам - помогите ему сделать это), и будет докачивать только те серии которых у вас ещё нет. Старые серии при этом не удаляются, а продолжают раздаваться!
    Eсли вы уже удалили старые серии, то предотвратить повторную закачку старых серий можно, отжав галочку в соответствующих местах при запуске нового торрента. По возможности, желательно не удалять старые серии как можно дольше чтобы релизёр не столько продолжал раздавать старые серии, а смог сконцентрироваться на новых.
    Общее
    Уникальный идентификатор : 219458456061896383671633585907126419490 (0xA51A2944EB152903B5E658FF2972C022)
    Полное имя : F:\9J, 9K и 9L (9JKL)\9JKL.s01e05.HD720p.WEB-DL.Rus.Eng.BaibaKo.tv.mkv
    Формат : Matroska
    Версия формата : Version 4 / Version 2
    Размер файла : 704 Мбайт
    Продолжительность : 20 м. 8 с.
    Общий поток : 4891 Кбит/сек
    Дата кодирования : UTC 2017-11-02 23:21:44
    Программа кодирования : mkvmerge v14.0.0 ('Flow') 64bit
    Библиотека кодирования : libebml v1.3.4 + libmatroska v1.4.5

    Видео
    Идентификатор : 1
    Формат : AVC
    Формат/Информация : Advanced Video Codec
    Профиль формата : High@L3.1
    Настройки формата : 2 Ref Frames
    Параметр CABAC формата : Нет
    Параметр RefFrames формата : 2 кадра
    Идентификатор кодека : V_MPEG4/ISO/AVC
    Продолжительность : 20 м. 7 с.
    Битрейт : 4121 Кбит/сек
    Ширина : 1280 пикселей
    Высота : 720 пикселей
    Соотношение сторон : 16:9
    Режим частоты кадров : Постоянный
    Частота кадров : 23,976 (23976/1000) кадра/сек
    Цветовое пространство : YUV
    Субдискретизация насыщенности : 4:2:0
    Битовая глубина : 8 бит
    Тип развёртки : Прогрессивная
    Бит/(Пиксели*Кадры) : 0.187
    Размер потока : 593 Мбайт (84%)
    Default : Нет
    Forced : Нет
    Цветовой диапазон : Limited
    Основные цвета : BT.709
    Характеристики трансфера : BT.709
    Коэффициенты матрицы : BT.709

    Аудио #1
    Идентификатор : 2
    Формат : AC-3
    Формат/Информация : Audio Coding 3
    Идентификатор кодека : A_AC3
    Продолжительность : 20 м. 8 с.
    Вид битрейта : Постоянный
    Битрейт : 384 Кбит/сек
    Каналы : 6 каналов
    Расположение каналов : Front: L C R, Side: L R, LFE
    Частота : 48,0 КГц
    Частота кадров : 31,250 кадров/сек (1536 SPF)
    Битовая глубина : 16 бит
    Метод сжатия : С потерями
    Задержка видео : 12 мс.
    Размер потока : 55,3 Мбайт (8%)
    Язык : Russian
    ServiceKind/String : Complete Main
    Default : Да
    Forced : Нет

    Аудио #2
    Идентификатор : 3
    Формат : AC-3
    Формат/Информация : Audio Coding 3
    Идентификатор кодека : A_AC3
    Продолжительность : 20 м. 8 с.
    Вид битрейта : Постоянный
    Битрейт : 384 Кбит/сек
    Каналы : 6 каналов
    Расположение каналов : Front: L C R, Side: L R, LFE
    Частота : 48,0 КГц
    Частота кадров : 31,250 кадров/сек (1536 SPF)
    Битовая глубина : 16 бит
    Метод сжатия : С потерями
    Размер потока : 55,3 Мбайт (8%)
    Язык : English
    ServiceKind/String : Complete Main
    Default : Нет
    Forced : Нет





    Скриншоты:
    скриншот   скриншот   скриншот   скриншот   скриншот   скриншот   скриншот  
    скриншот  

    Раздача ведётся путём добавления новых серий. Добавлена 16 серия (07.01.2018).Просьба перекачать торрент файл.

    pb.wtf



  • Скачать 9J, 9K и 9L через торрент http://pic1.kartinco.top/images/11/8p61v.jpg Скачать фильм 9J, 9K и 9L через торрент бесплантно в хорошем качестве qw.png Ох уж эти семейные отношения! Порой сложно бывает договориться даже с близкими людьми. Кто бы что ни говорил, но иногда сложные ... 8.2 10 5
    Info! Золотая раздача, скачанное не засчитывается.
    Торрент: Зарегистрирован [2018-02-06 23:53] · скачан: 5 раз
    Статус: √ проверено
    Размер: 11.09 GB
    Как cкачать? Как скачать 9J, 9K и 9L через торрент | qTorrent

    % Раздел Тема Автор DL S | L
    Зарубежные сериалы [ 23.13 GB ] 9J 9K и 9L / 9JKL / Сезон: 1 / Серии: 1-16 из 16 [2017 WEB-DL 1080p] MVO [TVShows] bober100 Скачать
    1 | 0


    Последний раз редактировалось: GEKADOL (2018-02-06 23:53), всего редактировалось 19 раз(а)

    28-11-2019 20:33  

    Отключить всю рекламу на сайте

    03-11-2017 03:21 9J, 9K и 9L Скачать торрент  

    это что Воронины?pb.wtf



    03-11-2017 07:31 9J, 9K и 9L Скачать торрент  

    slavagaripov писал(а):

    это что Воронины?

    Нет. Сходство только в квартирах. pb.wtf



    08-11-2017 23:49 9J, 9K и 9L Скачать торрент  

    Заменена 5 серия на PROPER!!!! pb.wtf



      Дорогой пользователь! Огромная просьба, поблагодарите релизера, оцените раздачу и оставьте свои комментарий, если Вы скачали 9J, 9K и 9L через торрент бесплатно! Внесите свою лепту в развитие PiratBit!
      Комментировать посты могут только пользователи прошедшие не сложную регистрацию
      Показать сообщения:    

      9J, 9K и 9L через торрент
      Скачать бесплатно 9J, 9K и 9L
      9J, 9K и 9L скачать торрент
      9J, 9K и 9L смотреть онлайн
      Cкачать фильм 9J, 9K и 9L бесплатно
      9J, 9K и 9L скачать торрент в хорошем качестве
      9J, 9K и 9L смотреть онлайн бесплатно в хорошем качестве


      Вы не можете начинать темы
      Вы не можете отвечать на сообщения
      Вы не можете редактировать свои сообщения
      Вы не можете удалять свои сообщения
      Вы не можете голосовать в опросах
      Вы не можете прикреплять файлы к сообщениям
      Вы можете скачивать файлы