Ссылка на приватное зеркало всего за 1$. Внимание количество ограничено!!!

iTunes

iTunes

iTunes

1

iTunes

iTunes

iTunes

iTunes

iTunes

30
pack

$ от Little Big

ВАЖНО

!!Акция!!

Alien_RageХит недели

RePack

Resident Evil 21

ИГРА 18+

pack

RePack

jed

!!Акция!!

Alien_Rage

RePack

fifa19

RePack

Assassins Creed: Odyssey

RePack

NEED FOR SPEED™ PAYBACK

4 сезон

9 сезон

Бесстыжие 9 сезон

Все сериалы

все сериалы на PB.wtf

RePack

FAR CRY 5
  

На глубине 6 футов / 6 Below: Miracle on the Mountain (Скотт Во) [2017, триллер, драма, приключения, биография, WEB-DL 1080p] DUB [iTunes] pb.wtf

На глубине 6 футов через торрент pb.wtf

Размер: 3.63 GB | Добавлен: 2 года 8 мес. назад | Торрент скачан:637 раз
Скачать  

03-11-2017 05:09 На глубине 6 футов Скачать торрент  

На глубине 6 футов / 6 Below: Miracle on the MountainГод выпуска: 2017
Страна: США
Жанр: триллер, драма, приключения, биография
Продолжительность: 01:39:04
Перевод: Дубляж iTunes
Субтитры: английские

Режиссер: Скотт Во

rating

В ролях:

Джош Хартнетт, Мира Сорвино, Сара Дюмон, Кейл Калли, Джейсон Коттл, Остин Р. Грант, Нэйтан Стивенс, Марти МакСорели, Шон Пильц, Ваши Недомански

Описание:

После окончания блестящей спортивной карьеры Эрик Лемарк, олимпийский чемпион мира по хоккею, уже не может жить без адреналина. Теперь драйв он находит в наркотиках и сноуборде. Когда лыжный патруль в горах Маммос (Калифорния) закрывает все трассы из-за надвигающейся бури, Лемарк решает сделать последний спуск и оказывается в смертельной снежной западне...

Качество: WEB-DL 1080p
Формат: MKV
Видео кодек: H.264
Аудио кодек: AC3

Видео: MPEG-4 AVC, 4551 Кбит/с, 1920x692
Аудио#1: Русский (AC3, 6 ch, 384 Кбит/с)
Аудио#2: английский (AC3, 6 ch, 384 Кбит/с)
скриншот   скриншот   скриншот  

Общее
Уникальный идентификатор : 219612136012266469317240928104344387268 (0xA537C246983168139DC9979AE7CEFEC4)
Полное имя : D:\Na.glubine.6.fut0v.2017.WEB-DL.1080p.mkv
Формат : Matroska
Версия формата : Version 2
Размер файла : 3,63 Гбайт
Продолжительность : 1 ч. 37 м.
Общий поток : 5321 Кбит/сек
Дата кодирования : UTC 2017-11-02 23:07:35
Программа кодирования : mkvmerge v8.3.0 ('Over the Horizon') 64bit
Библиотека кодирования : libebml v1.3.1 + libmatroska v1.4.2
Обложка : Yes
Attachments : small_cover_land.jpg / cover.jpg / cover_land.jpg / small_cover.jpg

Видео
Идентификатор : 1
Формат : AVC
Формат/Информация : Advanced Video Codec
Профиль формата : High@L4
Параметр CABAC формата : Да
Параметр ReFrames формата : 5 кадров
Идентификатор кодека : V_MPEG4/ISO/AVC
Продолжительность : 1 ч. 37 м.
Битрейт : 4551 Кбит/сек
Ширина : 1920 пикселей
Высота : 692 пикселя
Соотношение сторон : 2,775
Режим частоты кадров : Постоянный
Частота кадров : 23,976 (23976/1000) кадра/сек
Цветовое пространство : YUV
Субдискретизация насыщенности : 4:2:0
Битовая глубина : 8 бит
Тип развёртки : Прогрессивная
Бит/(Пиксели*Кадры) : 0.143
Размер потока : 3,11 Гбайт (86%)
Язык : English
Default : Да
Forced : Нет
Цветовой диапазон : Limited
Основные цвета : BT.709
Характеристики трансфера : BT.709
Коэффициенты матрицы : BT.709

Аудио #1
Идентификатор : 2
Формат : AC-3
Формат/Информация : Audio Coding 3
Расширение режима : CM (complete main)
Параметр Endianness формата : Big
Идентификатор кодека : A_AC3
Продолжительность : 1 ч. 37 м.
Вид битрейта : Постоянный
Битрейт : 384 Кбит/сек
Каналы : 6 каналов
Расположение каналов : Front: L C R, Side: L R, LFE
Частота : 48,0 КГц
Частота кадров : 31,250 кадров/сек (1536 spf)
Метод сжатия : С потерями
Задержка видео : -42 мс.
Размер потока : 268 Мбайт (7%)
Язык : Russian
Default : Да
Forced : Нет

Аудио #2
Идентификатор : 3
Формат : AC-3
Формат/Информация : Audio Coding 3
Расширение режима : CM (complete main)
Параметр Endianness формата : Big
Идентификатор кодека : A_AC3
Продолжительность : 1 ч. 37 м.
Вид битрейта : Постоянный
Битрейт : 384 Кбит/сек
Каналы : 6 каналов
Расположение каналов : Front: L C R, Side: L R, LFE
Частота : 48,0 КГц
Частота кадров : 31,250 кадров/сек (1536 spf)
Метод сжатия : С потерями
Задержка видео : -42 мс.
Размер потока : 268 Мбайт (7%)
Язык : English
Default : Нет
Forced : Нет

Текст
Идентификатор : 4
Формат : UTF-8
Идентификатор кодека : S_TEXT/UTF8
Идентификатор кодека/Информация : UTF-8 Plain Text
Продолжительность : 1 ч. 33 м.
Битрейт : 25 бит/сек
Count of elements : 588
Размер потока : 17,5 Кбайт (0%)
Язык : English
Default : Да
Forced : Нет

Меню
00:00:00.000 : en:1
00:06:08.535 : en:2
00:10:43.851 : en:3
00:17:17.452 : en:4
00:22:18.544 : en:5
00:27:45.621 : en:6
00:33:42.436 : en:7
00:41:54.970 : en:8
00:46:58.690 : en:9
00:51:46.310 : en:10
00:54:32.392 : en:11
01:02:16.522 : en:12
01:10:48.784 : en:13
01:15:31.858 : en:14
01:19:02.485 : en:15
01:29:05.379 : en:16

pb.wtf



Скачать На глубине 6 футов через торрент http://s019.radikal.ru/i615/1710/2a/3a0eaefe9d7d.jpg Скачать фильм На глубине 6 футов через торрент бесплантно в хорошем качестве Описание: После окончания блестящей спортивной карьеры Эрик Лемарк, олимпийский чемпион мира по хоккею, уже не может жить без адреналина. ... 9.7 10 19
Торрент: Зарегистрирован [2017-11-03 05:09] · скачан: 637 раз
Статус: √ проверено
Размер: 3.63 GB
Как cкачать? Как скачать На глубине 6 футов через торрент | qTorrent

% Раздел Тема Автор DL S | L
Фильмы 2017 [DVDrip, WEB-DLRip, HDrip] (DUB, MVO) [ 1.46 GB ] На глубине 6 футов / 6 Below: Miracle on the Mountain [2017 биография BDRip] - [] Twi7ter Скачать
2 | 0

28-11-2019 20:33  

Отключить всю рекламу на сайте

03-11-2017 12:04 На глубине 6 футов Скачать торрент  

чо за наркоту он хавал? спиды?pb.wtf



    Дорогой пользователь! Огромная просьба, поблагодарите релизера, оцените раздачу и оставьте свои комментарий, если Вы скачали На глубине 6 футов через торрент бесплатно! Внесите свою лепту в развитие PiratBit!
    Комментировать посты могут только пользователи прошедшие не сложную регистрацию
    Показать сообщения:    

    На глубине 6 футов через торрент
    Скачать бесплатно На глубине 6 футов
    На глубине 6 футов скачать торрент
    На глубине 6 футов смотреть онлайн
    Cкачать фильм На глубине 6 футов бесплатно
    На глубине 6 футов скачать торрент в хорошем качестве
    На глубине 6 футов смотреть онлайн бесплатно в хорошем качестве


    Вы не можете начинать темы
    Вы не можете отвечать на сообщения
    Вы не можете редактировать свои сообщения
    Вы не можете удалять свои сообщения
    Вы не можете голосовать в опросах
    Вы не можете прикреплять файлы к сообщениям
    Вы можете скачивать файлы