Ссылка на приватное зеркало нашего сайта всего за 1$. Внимание количество ограничено!!!

2 сезон

iTunes

1 сезон

1

2 сезон

2 сезон

iTunes

1 сезон

RePack

30

Ultimate

ВАЖНО

ИГРА 18+

pack

RePack

MK11
pack

Забери бонус

RePack

jed

!!Акция!!

Alien_Rage

RePack

fifa19

RePack

Assassins Creed: Odyssey

RePack

NEED FOR SPEED™ PAYBACK

4 сезон

9 сезон

Бесстыжие 9 сезон

Все сериалы

все сериалы на PB.wtf

RePack

FAR CRY 5
  

Легенды / Знание / Сезон: 1 / Серии 1-6 из 6 (Дарнелл Мартин, Томас Дж. Райт, Ник Копус) [2017, ужасы, WEBRip] [MVO] (Good People) pb.wtf

Легенды через торрент pb.wtf

Размер: 3.08 GB | Добавлен: 3 года назад | Торрент скачан:97 раз
Скачать  

03-11-2017 12:34 Легенды Скачать торрент  

Легенды / Lore
Год выпуска: 2017
Страна: США
Жанр: Ужасы
Продолжительность: ~00:35:00
Перевод: Профессиональный (многоголосый закадровый) Студия Good People

Режиссёр: Дарнелл Мартин, Томас Дж. Райт, Ник Копус

В ролях: Роберт Патрик, Джон Байнер, Сандра Эллис Лэфферти, Стив Култер, Надин Левингтон, Марк Эшворт, Бетани Энн Линд и другие

Описание: Мало кто знает, как именно появляются фольклорные истории. Именно поэтому проект под названием "Знание" расскажет нам о простых событиях, которые неожиданно приобрели мистическую окраску и стали народным достоянием, окрещенным легендами. В общем и целом, многочисленные странности и сверхъестественные явления - это всего лишь результат простых событий, которые пошли не по намеченному сценарию. "Знание" - это сериал, который основан на знаменитом и популярном интернет-проекте, рассказывающем о событиях, произошедших на самом деле. Правда, потом эти истории переделали, представив в них главными героями таких сверхъестественных персонажей, как вампиров, оборотней, зомби, призраков или монстров! Некоторые рассказы уходят глубоко в историю, а некоторые появляются буквально с минуты на минуту!



Сэмпл

Качество: WEBRip
Формат: AVI
Видео: XviD, ~ 1500 kbps, 720x400 (16:9), 23.976 fps
Аудио 1: MP3, 48,0 КГц, 2 ch, 128 kbps - Rus
Аудио 2: MP3, 48,0 КГц, 2 ch, 128 kbps - Eng
Субтитры: отсутствуют
Общее
Полное имя                               : F:\GoodPeople\Lore. Season 1 (WEBRip l 400p l Good People)\Lore.S01E01.WEBRip.Rus.Eng.GoodPeople.avi
Формат                                   : AVI
Формат/Информация                        : Audio Video Interleave
Размер файла                             : 500 Мбайт
Продолжительность                        : 39 м. 29 с.
Общий поток                              : 1771 Кбит/сек
Программа кодирования                    : VirtualDubMod 1.5.10.3 | www.virtualdub-fr.org || (build 2550/release)
Библиотека кодирования                   : VirtualDubMod build 2550/release

Видео
Идентификатор                            : 0
Формат                                   : MPEG-4 Visual
Профиль формата                          : Advanced Simple@L5
Настройки формата                        : BVOP1
Параметр BVOP формата                    : 1
Параметр QPel формата                    : Нет
Параметр GMC формата                     : Без точки перехода
Параметр матрицы формата                 : Default (MPEG)
Идентификатор кодека                     : XVID
Идентификатор кодека/Подсказка           : XviD
Продолжительность                        : 39 м. 29 с.
Битрейт                                  : 1501 Кбит/сек
Ширина                                   : 720 пикселей
Высота                                   : 400 пикселей
Соотношение сторон                       : 16:9
Частота кадров                           : 23,976 (24000/1001) кадра/сек
Цветовое пространство                    : YUV
Субдискретизация насыщенности            : 4:2:0
Битовая глубина                          : 8 бит
Тип развёртки                            : Прогрессивная
Метод сжатия                             : С потерями
Бит/(Пиксели*Кадры)                      : 0.217
Размер потока                            : 424 Мбайт (85%)
Библиотека кодирования                   : XviD 73

Аудио #1
Идентификатор                            : 1
Формат                                   : MPEG Audio
Версия формата                           : Version 1
Профиль формата                          : Layer 3
Настройки формата                        : Joint stereo / MS Stereo
Идентификатор кодека                     : 55
Идентификатор кодека/Подсказка           : MP3
Продолжительность                        : 39 м. 29 с.
Вид битрейта                             : Постоянный
Битрейт                                  : 128 Кбит/сек
Каналы                                   : 2 канала
Частота                                  : 48,0 КГц
Метод сжатия                             : С потерями
Размер потока                            : 36,2 Мбайт (7%)
Выравнивание                             : Соединение по промежуткам
Продолжительность промежутка             : 42  мс. (1,00 видеокадр)
Время предзагрузки промежутка            : 504  мс.

Аудио #2
Идентификатор                            : 2
Формат                                   : MPEG Audio
Версия формата                           : Version 1
Профиль формата                          : Layer 3
Настройки формата                        : Joint stereo / MS Stereo
Идентификатор кодека                     : 55
Идентификатор кодека/Подсказка           : MP3
Продолжительность                        : 39 м. 29 с.
Вид битрейта                             : Постоянный
Битрейт                                  : 128 Кбит/сек
Каналы                                   : 2 канала
Частота                                  : 48,0 КГц
Метод сжатия                             : С потерями
Размер потока                            : 36,2 Мбайт (7%)
Выравнивание                             : Соединение по промежуткам
Продолжительность промежутка             : 42  мс. (1,00 видеокадр)
Время предзагрузки промежутка            : 504  мс.
скриншот  скриншот  скриншот  
pb.wtf



Скачать Легенды через торрент http://i98.fastpic.ru/big/2017/1103/df/1b13ea37a4c2585b62a9fedd57f54ddf.png Скачать фильм Легенды через торрент бесплантно в хорошем качестве Описание: Мало кто знает, как именно появляются фольклорные истории. Именно поэтому проект под названием "Знание" расскажет нам о простых ... 10 10 3
Торрент: Зарегистрирован [2017-11-03 12:34] · скачан: 97 раз
Статус: √ проверено
Размер: 3.08 GB
Как cкачать? Как скачать Легенды через торрент | qTorrent

28-11-2019 20:33  

Отключить всю рекламу на сайте

03-11-2017 19:41 Легенды Скачать торрент  

не качайте, полная хрень, вообще ни о чём.pb.wtf



    Дорогой пользователь! Огромная просьба, поблагодарите релизера, оцените раздачу и оставьте свои комментарий, если Вы скачали Легенды через торрент бесплатно! Внесите свою лепту в развитие PiratBit!
    Комментировать посты могут только пользователи прошедшие не сложную регистрацию
    Показать сообщения:    

    Легенды через торрент
    Скачать бесплатно Легенды
    Легенды скачать торрент
    Легенды смотреть онлайн
    Cкачать фильм Легенды бесплатно
    Легенды скачать торрент в хорошем качестве
    Легенды смотреть онлайн бесплатно в хорошем качестве


    Вы не можете начинать темы
    Вы не можете отвечать на сообщения
    Вы не можете редактировать свои сообщения
    Вы не можете удалять свои сообщения
    Вы не можете голосовать в опросах
    Вы не можете прикреплять файлы к сообщениям
    Вы можете скачивать файлы