Ссылка на приватное зеркало нашего сайта всего за 1$. Внимание количество ограничено!!!

2 сезон

iTunes

1 сезон

1

2 сезон

2 сезон

iTunes

1 сезон

RePack

30

Ultimate

ВАЖНО

ИГРА 18+

pack

RePack

MK11
pack

Забери бонус

RePack

jed

!!Акция!!

Alien_Rage

RePack

fifa19

RePack

Assassins Creed: Odyssey

RePack

NEED FOR SPEED™ PAYBACK

4 сезон

9 сезон

Бесстыжие 9 сезон

Все сериалы

все сериалы на PB.wtf

RePack

FAR CRY 5
  

Очень странные дела / Stranger Things / Сезон: 2 / Серии 1-9 из 9 (Мэтт Даффер, Росс Даффер, Шон Леви) [2017, Ужасы, триллер, драма, WEBRip 1080p] [MVO] (Jaskier) pb.wtf

Очень странные дела через торрент pb.wtf

Размер: 49.24 GB | Добавлен: 3 года назад | Торрент скачан:110 раз
Скачать  

03-11-2017 21:41 Очень странные дела Скачать торрент  

Очень странные дела / Крайне странные события / Stranger Things • Год выпуска: 2017
• Страна: США
• Жанр: ужасы, триллер, драма
• Продолжительность: ~ 00:48:00
• Перевод: Профессиональный (многоголосый закадровый) | Jaskier

• Режиссёр: Мэтт Даффер, Росс Даффер, Шон Леви

• В ролях: Вайнона Райдер, Дэвид Харбор, Кара Буоно, Милли Бобби Браун, Наталия Дайер, Чарли Хитон, Калеб МакЛафлин, Ной Шнапп и др.

• Описание: Главное действие нового телевизионного сериала разворачивается в 80-х годах на территории тихого провинциального города. Благоприятное течение местной жизни нарушает загадочное исчезновение подростка по имени Уилл. Выяснить обстоятельства дела, полны решимости родные мальчика и местный шериф. Также события затрагивают лучшего друга Уилла – Майка. Он начинает собственное расследование, в процессе которого встречает группу людей со сверхспособностями. Теперь Майк уверен, что близок к разгадке, однако для этого ему предстоит оказаться в эпицентре ожесточенной битвы потусторонних сил.



• Качество: WEBRip 1080p
• Формат: MKV
• Видео: 1920x960 (2,000) | X264 | ~14000 kbps | 23.976 fps
• Аудио #1: AC3 | 48 KHz | 5.1 (Front: L С R Side: L R) + LFE | ~384 kbps [RUS]
• Аудио #2: AC3 | 48 KHz | 5.1 (Front: L С R Side: L R) + LFE | ~384 kbps [ENG]
• Субтитры: | английские
Переведено и озвучено студией JASKIER
Общее
Уникальный идентификатор                 : 234604146348324310076879678566039990658 (0xB07F1D741C6F0DB5B84F794BA8C6B182)
Полное имя                               : E:\JASKiER\Stranger Things. Season 2 (WEBRip l 1080p l Jaskier)\Stranger.Things.S02E01.1080p.NF.WEBRip.DD5.1.x264-Jaskier.mkv
Формат                                   : Matroska
Версия формата                           : Version 2
Размер файла                             : 5,07 Гбайт
Продолжительность                        : 47 м. 49 с.
Общий поток                              : 15,2 Мбит/сек
Дата кодирования                         : UTC 2017-11-02 21:15:04
Программа кодирования                    : mkvmerge v7.8.0 ('River Man') 32bit built on Apr  3 2015 12:11:22
Библиотека кодирования                   : libebml v1.3.1 + libmatroska v1.4.2

Видео
Идентификатор                            : 1
Формат                                   : AVC
Формат/Информация                        : Advanced Video Codec
Профиль формата                          : High@L4.1
Настройки формата                        : CABAC / 4 Ref Frames
Параметр CABAC формата                   : Да
Параметр RefFrames формата               : 4 кадра
Идентификатор кодека                     : V_MPEG4/ISO/AVC
Продолжительность                        : 47 м. 49 с.
Битрейт                                  : 14,1 Мбит/сек
Ширина                                   : 1920 пикселей
Высота                                   : 960 пикселей
Соотношение сторон                       : 2,000
Режим частоты кадров                     : Постоянный
Частота кадров                           : 23,976 (24000/1001) кадра/сек
Цветовое пространство                    : YUV
Субдискретизация насыщенности            : 4:2:0
Битовая глубина                          : 8 бит
Тип развёртки                            : Прогрессивная
Бит/(Пиксели*Кадры)                      : 0.319
Размер потока                            : 4,71 Гбайт (93%)
Библиотека кодирования                   : x264 core 152 r2851kMod ba24899
Настройки программы                      : cabac=1 / ref=4 / deblock=1:-3:-3 / analyse=0x3:0x133 / me=umh / subme=10 / psy=1 / fade_compensate=0.00 / psy_rd=1.00:0.00 / mixed_ref=1 / me_range=48 / chroma_me=1 / trellis=2 / 8x8dct=1 / cqm=0 / deadzone=21,11 / fast_pskip=0 / chroma_qp_offset=-2 / threads=24 / lookahead_threads=4 / sliced_threads=0 / nr=0 / decimate=0 / interlaced=0 / bluray_compat=0 / constrained_intra=0 / bframes=8 / b_pyramid=2 / b_adapt=2 / b_bias=0 / direct=3 / weightb=1 / open_gop=0 / weightp=2 / keyint=250 / keyint_min=23 / scenecut=40 / intra_refresh=0 / rc=crf / mbtree=0 / crf=17.0000 / qcomp=0.60 / qpmin=0 / qpmax=69 / qpstep=4 / ip_ratio=1.30 / pb_ratio=1.20 / aq=3:0.80
Язык                                     : English
Default                                  : Да
Forced                                   : Нет

Аудио #1
Идентификатор                            : 2
Формат                                   : AC-3
Формат/Информация                        : Audio Coding 3
Идентификатор кодека                     : A_AC3
Продолжительность                        : 47 м. 49 с.
Вид битрейта                             : Постоянный
Битрейт                                  : 384 Кбит/сек
Каналы                                   : 6 каналов
Расположение каналов                     : Front: L C R, Side: L R, LFE
Частота                                  : 48,0 КГц
Частота кадров                           : 31,250 кадров/сек (1536 SPF)
Битовая глубина                          : 16 бит
Метод сжатия                             : С потерями
Размер потока                            : 131 Мбайт (3%)
Заголовок                                : Jaskier
Язык                                     : Russian
ServiceKind/String                       : Complete Main
Default                                  : Да
Forced                                   : Нет

Аудио #2
Идентификатор                            : 3
Формат                                   : AC-3
Формат/Информация                        : Audio Coding 3
Идентификатор кодека                     : A_AC3
Продолжительность                        : 47 м. 49 с.
Вид битрейта                             : Постоянный
Битрейт                                  : 384 Кбит/сек
Каналы                                   : 6 каналов
Расположение каналов                     : Front: L C R, Side: L R, LFE
Частота                                  : 48,0 КГц
Частота кадров                           : 31,250 кадров/сек (1536 SPF)
Битовая глубина                          : 16 бит
Метод сжатия                             : С потерями
Размер потока                            : 131 Мбайт (3%)
Язык                                     : English
ServiceKind/String                       : Complete Main
Default                                  : Нет
Forced                                   : Нет

Текст #1
Идентификатор                            : 4
Формат                                   : UTF-8
Идентификатор кодека                     : S_TEXT/UTF8
Идентификатор кодека/Информация          : UTF-8 Plain Text
Язык                                     : English
Default                                  : Нет
Forced                                   : Нет

Текст #2
Идентификатор                            : 5
Формат                                   : UTF-8
Идентификатор кодека                     : S_TEXT/UTF8
Идентификатор кодека/Информация          : UTF-8 Plain Text
Заголовок                                : SDH
Язык                                     : English
Default                                  : Нет
Forced                                   : Нет
скриншот  скриншот  скриншот  
pb.wtf



Скачать Очень странные дела через торрент http://i89.fastpic.ru/big/2017/1027/5c/c870fc1556f5419ea68e68f6a554bc5c.png Скачать фильм Очень странные дела через торрент бесплантно в хорошем качестве Описание: Главное действие нового телевизионного сериала разворачивается в 80-х годах на территории тихого провинциального города. ... 7.8 10 4
Info! Золотая раздача, скачанное не засчитывается.
Торрент: Зарегистрирован [2017-11-03 21:41] · скачан: 110 раз
Статус: √ проверено
Размер: 49.24 GB
Как cкачать? Как скачать Очень странные дела через торрент | qTorrent

% Раздел Тема Автор DL S | L
Зарубежные сериалы [ 21.98 GB ] Очень странные дела / Stranger Things / Сезон: 2 / Серии: 1-9 из 9 [2017 BDRip-HEVC 1080p] DUB + 2xMVO RealOldGamer Скачать
2 | 0
Зарубежные сериалы [ 156.64 GB ] Очень странные дела / Stranger Things / 2 сезон / 1-9 серии из 9 [2017 UHD BDRemux 2160p] DUB + 2xMVO [LostFilm NewStudio] sheker187 Скачать
1 | 0
Ultra HD (UHD: 2K, 4K, 8K) — видео сверхвысокой чёткости [ 130.37 GB ] Очень странные дела / Stranger Things / Сезон 2 / Серии 1-9 из 9 [2017 UHD WEBRip 2160p] MVO [Good People LostFilm] bober100 Скачать
1 | 0
Зарубежные сериалы [ 50.74 GB ] Очень странные дела / Stranger Things / Сезон: 2 / Серии 1-9 из 9 [2017 WEBRip 1080p] [MVO] killermax2013 Скачать
1 | 0
Зарубежные сериалы [ 5.85 GB ] Очень странные дела / Stranger Things / Сезон: 2 / Серии 1-9 из 9 [2017 WEBRip] [MVO] killermax2013 Скачать
1 | 0
Зарубежные сериалы [ 4.45 GB ] Очень странные дела / Stranger Things / Сезон: 2 / Серии 1-9 из 9 [2017 WEBRip] [MVO] killermax2013 Скачать
2 | 0
Зарубежные сериалы [ 20.06 GB ] Очень странные дела / Stranger Things / Сезон: 2 / Серии 1-9 из 9 [2017 WEB-DLRip 1080p] [MVO] killermax2013 Скачать
1 | 0

28-11-2019 20:33  

Отключить всю рекламу на сайте

04-11-2017 11:02 Очень странные дела Скачать торрент  

Перевод лучше чем у new studio и lostfilm?pb.wtf



04-11-2017 11:10 Очень странные дела Скачать торрент  

fr33warrior писал(а):

Перевод лучше чем у new studio и lostfilm?

странный вопрос, все переводы хороши но каждый для себя выбирает самpb.wtf



    Дорогой пользователь! Огромная просьба, поблагодарите релизера, оцените раздачу и оставьте свои комментарий, если Вы скачали Очень странные дела через торрент бесплатно! Внесите свою лепту в развитие PiratBit!
    Комментировать посты могут только пользователи прошедшие не сложную регистрацию
    Показать сообщения:    

    Очень странные дела через торрент
    Скачать бесплатно Очень странные дела
    Очень странные дела скачать торрент
    Очень странные дела смотреть онлайн
    Cкачать фильм Очень странные дела бесплатно
    Очень странные дела скачать торрент в хорошем качестве
    Очень странные дела смотреть онлайн бесплатно в хорошем качестве


    Вы не можете начинать темы
    Вы не можете отвечать на сообщения
    Вы не можете редактировать свои сообщения
    Вы не можете удалять свои сообщения
    Вы не можете голосовать в опросах
    Вы не можете прикреплять файлы к сообщениям
    Вы можете скачивать файлы