Ссылка на приватное зеркало всего за 1$. Внимание количество ограничено!!!

iTunes

iTunes

iTunes

1

iTunes

iTunes

iTunes

iTunes

iTunes

30
pack

Новость дня

ВАЖНО

!!Акция!!

Alien_RageХит недели

RePack

Resident Evil 21

ИГРА 18+

pack

RePack

jed

!!Акция!!

Alien_Rage

RePack

fifa19

RePack

Assassins Creed: Odyssey

RePack

NEED FOR SPEED™ PAYBACK

4 сезон

9 сезон

Бесстыжие 9 сезон

Все сериалы

все сериалы на PB.wtf

RePack

FAR CRY 5
  

Муму (Анатолий Бобровский, Евгений Тетерин) [1959, СССР, драма, экранизация, SATRip от AVP Studio] pb.wtf

Муму через торрент pb.wtf

Размер: 745 MB | Добавлен: 2 года 6 мес. назад | Торрент скачан:26 раз
Скачать  

04-11-2017 08:11 Муму Скачать торрент  

Муму
Страна: СССР
Производство: Мосфильм

Жанр: драма, экранизация
Год выпуска: 1959
Продолжительность: 01:07:54

Перевод: Не требуется
Cубтитры: нет
Оригинальная аудиодорожка: русский

Режиссер: Анатолий Бобровский, Евгений Тетерин

В ролях:
Афанасий Кочетков, Нина Гребешкова, Елена Полевицкая, Игорь Безяев, Иван Рыжов, Евгений Тетерин, Леонид Кмит, Варвара Мясникова, Александра Денисова, Инна Фёдорова, Гавриил Белов, Алексей Добронравов...
Об актёрах подробней

Описание:
По одноименной повести И.С.Тургенева.
Глухонемого крестьянина Герасима барыня взяла с собой в Москву дворником. Это занятие его тяготило. Он с детства привык к работе в поле и сильно тосковал по деревне, с трудом привыкал к городскому быту. Глянулась ему прачка Татьяна. Но барыне взбрело в голову выдать девушку за пьяницу башмачника Капитона.

Источник: DVB
Качество видео: SATRip
Формат видео: AVI

Видео: 688x512 (4:3), 25 fps, XviD ~ 1332 kbps avg, 0.151 bit/pixel
Аудио: 48 kHz, Dolby Digital AC3 2.0, 192 kbps

Раздача от:
Общее
Полное имя : Mumu.1959.SATRip_[New-team]_by_AVP_Studio.avi
Формат : AVI
Формат/Информация : Audio Video Interleave
Размер файла : 745 Мбайт
Продолжительность : 1 ч. 7 м.
Общий поток : 1534 Кбит/сек
Программа кодирования : VirtualDubMod 1.5.10.3 | www.virtualdub-fr.org || (build 2550/release)
Библиотека кодирования : VirtualDubMod build 2550/release

Видео
Идентификатор : 0
Формат : MPEG-4 Visual
Профиль формата : Advanced Simple@L5
Параметр BVOP формата : 1
Параметр QPel формата : Нет
Параметр GMC формата : Без точки перехода
Параметр матрицы формата : Выборочная
Идентификатор кодека : XVID
Идентификатор кодека/Подсказка : XviD
Продолжительность : 1 ч. 7 м.
Битрейт : 1332 Кбит/сек
Ширина : 688 пикселей
Высота : 512 пикселей
Соотношение сторон : 4:3
Частота кадров : 25,000 кадров/сек
Цветовое пространство : YUV
Субдискретизация насыщенности : 4:2:0
Битовая глубина : 8 бит
Тип развёртки : Прогрессивная
Метод сжатия : С потерями
Бит/(Пиксели*Кадры) : 0.151
Размер потока : 647 Мбайт (87%)
Библиотека кодирования : XviD 73

Аудио
Идентификатор : 1
Формат : AC-3
Формат/Информация : Audio Coding 3
Параметр Endianness формата : Big
Идентификатор кодека : 2000
Продолжительность : 1 ч. 7 м.
Вид битрейта : Постоянный
Битрейт : 192 Кбит/сек
Каналы : 2 канала
Расположение каналов : Front: L R
Частота : 48,0 КГц
Частота кадров : 31,250 кадров/сек (1536 SPF)
Битовая глубина : 16 бит
Метод сжатия : С потерями
Размер потока : 93,2 Мбайт (13%)
Выравнивание : Разделение по промежуткам
Продолжительность промежутка : 40 мс. (1,00 видеокадр)
Время предзагрузки промежутка : 500 мс
pb.wtf



Скачать Муму через торрент http://s019.radikal.ru/i615/1711/ed/2d021b8d3444.png Скачать фильм Муму через торрент бесплантно в хорошем качестве Описание:По одноименной повести И.С.Тургенева.Глухонемого крестьянина Герасима барыня взяла с собой в Москву дворником. Это занятие его ... 10 10 1
Info! Золотая раздача, скачанное не засчитывается.
Торрент: Зарегистрирован [2017-11-04 08:11] · скачан: 26 раз
Статус: √ проверено
Размер: 745 MB
Как cкачать? Как скачать Муму через торрент | qTorrent

% Раздел Тема Автор DL S | L
Иностранные мультфильмы [ 2.19 GB ] Капитан Саблезуб и Волшебный бриллиант / Kaptein Sabeltann og den magiske diamant [2019 Мультфильм WEB-DLRip-AVC] - ExKinoRay Mr. Grab Скачать
4 | 0
Иностранные мультфильмы [ 1.37 GB ] Капитан Саблезуб и Волшебный бриллиант / Kaptein Sabeltann og den magiske diamant [2019 Мультфильм WEB-DLRip] bober100 Скачать
8 | 0
Зарубежные Мультфильмы (WEB-DL 720p, 1080p) [ 3.18 GB ] Капитан Саблезуб и Волшебный бриллиант / Kaptein Sabeltann og den magiske diamant [2019 Мультфильм WEB-DL 1080p] bober100 Скачать
11 | 0
Фильмы (HD 720p, 1080p) (48-60 fps) [ 9.17 GB ] Мумия / The Mummy [2017 BDRip 720p / 60 FPS Dub AVO Original] Tiberiumsun69 Скачать
2 | 0
Фильмы (Blu-ray, BD-Remux, HDDVD) [ 36.73 GB ] Мумия / The Mummy [2017 BDRemux 1080p] DUB [] + 3xAVO sheker187 Скачать
1 | 0
T Фильмы (мультфильмы) cо спонсором показа (Новинки AVI/MKV) [ 1.34 GB ] Мумия возрождается / Mummy Reborn [2019 WEB-DLRip Любительский ] oleg8 Скачать
1 | 0
T Фильмы (мультфильмы) cо спонсором показа (Новинки AVI/MKV) [ 3.26 GB ] Мумия возрождается / Mummy Reborn [2019 WEB-DL 720p] MVO ["Синема УС"] bober100 Скачать
1 | 0

28-11-2019 20:33  

Отключить всю рекламу на сайте

    Дорогой пользователь! Огромная просьба, поблагодарите релизера, оцените раздачу и оставьте свои комментарий, если Вы скачали Муму через торрент бесплатно! Внесите свою лепту в развитие PiratBit!
    Комментировать посты могут только пользователи прошедшие не сложную регистрацию
    Показать сообщения:    

    Муму через торрент
    Скачать бесплатно Муму
    Муму скачать торрент
    Муму смотреть онлайн
    Cкачать фильм Муму бесплатно
    Муму скачать торрент в хорошем качестве
    Муму смотреть онлайн бесплатно в хорошем качестве


    Вы не можете начинать темы
    Вы не можете отвечать на сообщения
    Вы не можете редактировать свои сообщения
    Вы не можете удалять свои сообщения
    Вы не можете голосовать в опросах
    Вы не можете прикреплять файлы к сообщениям
    Вы можете скачивать файлы