2 сезон

iTunes

1 сезон

1

iTunes

iTunes

iTunes

1 сезон

RePack

30

ИГРА 18+

pack

ВАЖНО

!!Акция!!

Alien_RageХит недели

RePack

MK11
pack

Забери бонус

RePack

jed

!!Акция!!

Alien_Rage

RePack

fifa19

RePack

Assassins Creed: Odyssey

RePack

NEED FOR SPEED™ PAYBACK

4 сезон

9 сезон

Бесстыжие 9 сезон

Все сериалы

все сериалы на PB.wtf

RePack

FAR CRY 5
  

Это наши дети / Серия 1-4 из 4 / (Ольга Музалева) [2017 г., Мелодрама, SATRip] pb.wtf

Это наши дети через торрент pb.wtf

Раздают: 1 [ 0 KB/s ]
Размер: 2.86 GB | Добавлен: 2 года 11 мес. назад | Торрент скачан:80 раз
Скачать  

04-11-2017 08:57 Это наши дети Скачать торрент  

Это наши дети / Серия 1-4 из 4 /
Год выпуска: 2017
Страна: Россия
Жанр: Мелодрама
Продолжительность: 4 х 00:50:20
Субтитры: Нет

Режиссер: Ольга Музалева

В ролях: Екатерина Федулова, Дмитрий Богданов, Никита Манец, Милана Волкова, Нина Персиянинова, Родион Вьюшкин, Ирина Луковская, Григорий Данцигер, Александра Живова, Александр Стефанцов, Сергей Белов, Варвара Сысоева, Владислав Волков, Власий Зубов, Александра Скачкова, Светлана Фатина, Михаил Волков (II)

Описание: Бездетная семейная пара Ольга и Кирилл проводят совместный отпуск на озере в российской глубинке. Они все время ссорятся и начинают понимать, что им лучше расстаться. Но неожиданно они встречают шестилетнего Ваню, который поможет им разобраться в своих отношениях. И уже вместе Кирилл и Ольга совершат самый неожиданный поступок.

Качество: SATRip
Формат: AVI
Видео кодек: XviD
Аудио кодек: AC3
Видео: XviD,704x448 ,25.00fps, 1800kbps
Аудио#1: AC3,48000Hz, stereo, 192kbps
скриншот   скриншот   скриншот   скриншот  

General
Complete name : H:\релизы.торрентфайл\ЭТО НАШИ ДЕТИ\Eto.Nashi.Deti.1.SATRip.[riperam.org].avi
Format : AVI
Format/Info : Audio Video Interleave
File size : 733 MiB
Duration : 51mn 13s
Overall bit rate : 2 001 Kbps
Writing application : VirtualDubMod 1.5.10.3 | www.virtualdub-fr.org || (build 2550/release)
Writing library : VirtualDubMod build 2550/release

Video
ID : 0
Format : MPEG-4 Visual
Format profile : Advanced Simple@L5
Format settings, BVOP : 2
Format settings, QPel : No
Format settings, GMC : No warppoints
Format settings, Matrix : Default (H.263)
Codec ID : XVID
Codec ID/Hint : XviD
Duration : 51mn 13s
Bit rate : 1 799 Kbps
Width : 704 pixels
Height : 448 pixels
Display aspect ratio : 1.571
Frame rate : 25.000 fps
Color space : YUV
Chroma subsampling : 4:2:0
Bit depth : 8 bits
Scan type : Progressive
Compression mode : Lossy
Bits/(Pixel*Frame) : 0.228
Stream size : 659 MiB (90%)
Writing library : XviD 1.2.1 (UTC 2008-12-04)

Audio
ID : 1
Format : AC-3
Format/Info : Audio Coding 3
Mode extension : CM (complete main)
Format settings, Endianness : Big
Codec ID : 2000
Duration : 51mn 13s
Bit rate mode : Constant
Bit rate : 192 Kbps
Channel(s) : 2 channels
Channel positions : Front: L R
Sampling rate : 48.0 KHz
Bit depth : 16 bits
Compression mode : Lossy
Stream size : 70.3 MiB (10%)
Alignment : Split accross interleaves
Interleave, duration : 40 ms (1.00 video frame)
Interleave, preload duration : 500 ms

pb.wtf



Скачать Это наши дети через торрент http://pic1.kartinco.top/images/11/1crvs.jpg Скачать фильм Это наши дети через торрент бесплантно в хорошем качестве Описание: Бездетная семейная пара Ольга и Кирилл проводят совместный отпуск на озере в российской глубинке. Они все время ссорятся и ... 8 10 4
Торрент: Зарегистрирован [2017-11-04 08:57] · скачан: 80 раз
Статус: √ проверено
Размер: 2.86 GB
Как cкачать? Как скачать Это наши дети через торрент | qTorrent

% Раздел Тема Автор DL S | L
Наши сериалы [ 2.43 GB ] Это наши дети / Серии: 1-4 из 4 [2015 SATRip-AVC] aleksan55 Скачать
1 | 0

28-11-2019 20:33  

Отключить всю рекламу на сайте

    Дорогой пользователь! Огромная просьба, поблагодарите релизера, оцените раздачу и оставьте свои комментарий, если Вы скачали Это наши дети через торрент бесплатно! Внесите свою лепту в развитие PiratBit!
    Комментировать посты могут только пользователи прошедшие не сложную регистрацию
    Показать сообщения:    

    Это наши дети через торрент
    Скачать бесплатно Это наши дети
    Это наши дети скачать торрент
    Это наши дети смотреть онлайн
    Cкачать фильм Это наши дети бесплатно
    Это наши дети скачать торрент в хорошем качестве
    Это наши дети смотреть онлайн бесплатно в хорошем качестве


    Вы не можете начинать темы
    Вы не можете отвечать на сообщения
    Вы не можете редактировать свои сообщения
    Вы не можете удалять свои сообщения
    Вы не можете голосовать в опросах
    Вы не можете прикреплять файлы к сообщениям
    Вы можете скачивать файлы