Ссылка на приватное зеркало всего за 1$. Внимание количество ограничено!!!

iTunes

iTunes

iTunes

1

iTunes

iTunes

iTunes

iTunes

iTunes

30
pack

$ от Little Big

ВАЖНО

!!Акция!!

Alien_RageХит недели

RePack

Resident Evil 21

ИГРА 18+

pack

RePack

jed

!!Акция!!

Alien_Rage

RePack

fifa19

RePack

Assassins Creed: Odyssey

RePack

NEED FOR SPEED™ PAYBACK

4 сезон

9 сезон

Бесстыжие 9 сезон

Все сериалы

все сериалы на PB.wtf

RePack

FAR CRY 5
  

Плохие парни 2 / Bad Boys II (Майкл Бэй) [2003, боевик, триллер, комедия, криминал, WEB-DL 1080p] [Open Matte] Dub+MVO+DVO+ 2xAVO+VO pb.wtf

Плохие парни 2 через торрент pb.wtf

Размер: 22.03 GB | Добавлен: 2 года 8 мес. назад | Торрент скачан:47 раз
Скачать  

04-11-2017 12:42 Плохие парни 2 Скачать торрент  

Плохие парни 2 / Bad Boys II

Год выпуска: 2003
Страна: США
Жанр: боевик, триллер, комедия, криминал
Продолжительность: 02:27:23

Перевод: Профессиональный (полное дублирование)
Перевод 2: Профессиональный (многоголосый закадровый) - CDV
Перевод 3: Профессиональный (двухголосый закадровый)
Перевод 4: Авторский (одноголосый закадровый) - А. Гаврилов
Перевод 5: Авторский (одноголосый закадровый) - Ю. Живов
Перевод 6: Одноголосый закадровый - Яроцкий aka kyberpunk

Субтитры: Russian, English, English (SDH)

rating

Режиссер: Майкл Бэй
Продюсер: Джерри Брукхаймер, Мэттью Кохан, Дон Феррароне
Сценарий: Рон Шелтон, Джерри Шталь, Джордж Галло

В ролях:

Уилл Смит, Мартин Лоуренс, Гэбриэл Юнион, Хорди Молья, Петер Стормаре, Тереза Рэндл, Джо Пантольяно, Майкл Шеннон, Джон Седа, Юл Васкес

Описание:

Детективы отдела по борьбе с незаконным оборотом наркотиков Майк Лоури и Маркус Бэрнетт получают задание расследовать схему доставки нового наркотика в Майами. Это расследование выводит их на искусный заговор, сплетенный местным наркобароном с целью поставить под контроль всю торговлю наркотиками в городе.
По чистой случайности про эти амбициозные планы узнают и остальные игроки нелегального рынка, в результате чего вспыхивает настоящая война. Несмотря на это, Майку и Маркусу удается успешно справляться с натиском наркомафии и сажать дилеров за решетку. Но ситуация начинает выходить из-под контроля, когда Майк не на шутку увлекается сестрой Маркуса, Сидни.
Торжество закона висит на волоске — ведь вместо выполнения спецзаданий детективы начинают выяснять отношения между собой…

Доп. информация: исходная вебка взята с amazon.

Тип релиза: WEB-DL 1080p SAMPLE
Контейнер: MKV

Видео: MPEG4 Video (H264) 1920x1080 23.976fps ~13307Kbps
Аудио#1: Russian: 48 kHz, AC3, 3/2 (L,C,R,l,r) + LFE ch, ~640.00 kbps avg |Дубляж - Blu-ray|
Аудио#2: Russian: 48 kHz, AC3, 3/2 (L,C,R,l,r) + LFE ch, ~384.00 kbps avg |Профессиональный, многоголосый - CDV|
Аудио#3: Russian: 48 kHz, AC3, 3/2 (L,C,R,l,r) + LFE ch, ~384.00 kbps avg |Профессиональный, двухголосый|
Аудио#4: Russian: 48 kHz, DTS, 3/2 (L,C,R,l,r) + LFE ch, ~1509.00 kbps avg |Авторский, одноголосый - А. Гаврилов|
Аудио#5: Russian: 48 kHz, DTS, 3/2 (L,C,R,l,r) + LFE ch, ~1509.00 kbps avg |Авторский, одноголосый - Ю. Живов|
Аудио#6: Russian: 48 kHz, DTS, 3/2 (L,C,R,l,r) + LFE ch, ~1509.00 kbps avg |Одноголосый - Яроцкий aka kyberpunk|
Аудио#7: English: 48 kHz, DTS, 3/2 (L,C,R,l,r) + LFE ch, ~1509.00 kbps avg |Оригинал - BluRay|
Аудио#8: English: 48 kHz, E-AC3, 3/2 (L,C,R,l,r) + LFE ch, ~640.00.00 kbps avg |Оригинал - Amazon|
General
Unique ID                                : 194259542543578568942932131532766428770 (0x922506E9428C42ADAFF17DAFBD73BE62)
Complete name                            : D:\Видео\HD\Bad.Boys.II.2003.Open.Matte.1080p.WEB-DL.6xRus.Eng.mkv
Format                                   : Matroska
Format version                           : Version 4 / Version 2
File size                                : 22.0 GiB
Duration                                 : 2 h 27 min
Overall bit rate mode                    : Variable
Overall bit rate                         : 21.4 Mb/s
Movie name                               : Bad.Boys.II.2003.Open.Matte.1080p.WEB-DL.6xRus.Eng-spartanec163
Encoded date                             : UTC 2017-11-03 16:09:43
Writing application                      : mkvmerge v8.3.0 ('Over the Horizon') 64bit
Writing library                          : libebml v1.3.1 + libmatroska v1.4.2

Video
ID                                       : 1
Format                                   : AVC
Format/Info                              : Advanced Video Codec
Format profile                           : High@L4
Format settings                          : CABAC / 4 Ref Frames
Format settings, CABAC                   : Yes
Format settings, RefFrames               : 4 frames
Codec ID                                 : V_MPEG4/ISO/AVC
Duration                                 : 2 h 27 min
Bit rate mode                            : Variable
Bit rate                                 : 13.3 Mb/s
Maximum bit rate                         : 15.0 Mb/s
Width                                    : 1 920 pixels
Height                                   : 1 080 pixels
Display aspect ratio                     : 16:9
Frame rate mode                          : Constant
Frame rate                               : 23.976 (24000/1001) FPS
Color space                              : YUV
Chroma subsampling                       : 4:2:0
Bit depth                                : 8 bits
Scan type                                : Progressive
Bits/(Pixel*Frame)                       : 0.268
Stream size                              : 13.7 GiB (62%)
Title                                    : WEB-DL 1080p (Amazon)
Language                                 : English
Default                                  : Yes
Forced                                   : No
Color range                              : Limited
Color primaries                          : BT.709
Transfer characteristics                 : BT.709
Matrix coefficients                      : BT.709

Audio #1
ID                                       : 2
Format                                   : AC-3
Format/Info                              : Audio Coding 3
Codec ID                                 : A_AC3
Duration                                 : 2 h 27 min
Bit rate mode                            : Constant
Bit rate                                 : 640 kb/s
Channel(s)                               : 6 channels
Channel positions                        : Front: L C R, Side: L R, LFE
Sampling rate                            : 48.0 kHz
Frame rate                               : 31.250 FPS (1536 SPF)
Bit depth                                : 16 bits
Compression mode                         : Lossy
Stream size                              : 675 MiB (3%)
Title                                    : AC3 5.1 640Kbps (Дубляж - BluRay)
Language                                 : Russian
Service kind                             : Complete Main
Default                                  : Yes
Forced                                   : No

Audio #2
ID                                       : 3
Format                                   : AC-3
Format/Info                              : Audio Coding 3
Codec ID                                 : A_AC3
Duration                                 : 2 h 27 min
Bit rate mode                            : Constant
Bit rate                                 : 384 kb/s
Channel(s)                               : 6 channels
Channel positions                        : Front: L C R, Side: L R, LFE
Sampling rate                            : 48.0 kHz
Frame rate                               : 31.250 FPS (1536 SPF)
Bit depth                                : 16 bits
Compression mode                         : Lossy
Stream size                              : 405 MiB (2%)
Title                                    : AC3 5.1 384Kbps (Профессиональный, многоголосый - CDV)
Language                                 : Russian
Service kind                             : Complete Main
Default                                  : No
Forced                                   : No

Audio #3
ID                                       : 4
Format                                   : AC-3
Format/Info                              : Audio Coding 3
Codec ID                                 : A_AC3
Duration                                 : 2 h 27 min
Bit rate mode                            : Constant
Bit rate                                 : 384 kb/s
Channel(s)                               : 6 channels
Channel positions                        : Front: L C R, Side: L R, LFE
Sampling rate                            : 48.0 kHz
Frame rate                               : 31.250 FPS (1536 SPF)
Bit depth                                : 16 bits
Compression mode                         : Lossy
Stream size                              : 405 MiB (2%)
Title                                    : AC3 5.1 384Kbps (Профессиональный, двухголосый)
Language                                 : Russian
Service kind                             : Complete Main
Default                                  : No
Forced                                   : No

Audio #4
ID                                       : 5
Format                                   : DTS
Format/Info                              : Digital Theater Systems
Codec ID                                 : A_DTS
Duration                                 : 2 h 27 min
Bit rate mode                            : Constant
Bit rate                                 : 1 509 kb/s
Channel(s)                               : 6 channels
Channel positions                        : Front: L C R, Side: L R, LFE
Sampling rate                            : 48.0 kHz
Frame rate                               : 93.750 FPS (512 SPF)
Bit depth                                : 16 bits
Compression mode                         : Lossy
Stream size                              : 1.55 GiB (7%)
Title                                    : DTS 5.1 1509Kbps (Авторский, одноголосый - А. Гаврилов)
Language                                 : Russian
Default                                  : No
Forced                                   : No

Audio #5
ID                                       : 6
Format                                   : DTS
Format/Info                              : Digital Theater Systems
Codec ID                                 : A_DTS
Duration                                 : 2 h 27 min
Bit rate mode                            : Constant
Bit rate                                 : 1 509 kb/s
Channel(s)                               : 6 channels
Channel positions                        : Front: L C R, Side: L R, LFE
Sampling rate                            : 48.0 kHz
Frame rate                               : 93.750 FPS (512 SPF)
Bit depth                                : 16 bits
Compression mode                         : Lossy
Stream size                              : 1.55 GiB (7%)
Title                                    : DTS 5.1 1509Kbps (Авторский, одноголосый - Ю. Живов)
Language                                 : Russian
Default                                  : No
Forced                                   : No

Audio #6
ID                                       : 7
Format                                   : DTS
Format/Info                              : Digital Theater Systems
Codec ID                                 : A_DTS
Duration                                 : 2 h 27 min
Bit rate mode                            : Constant
Bit rate                                 : 1 509 kb/s
Channel(s)                               : 6 channels
Channel positions                        : Front: L C R, Side: L R, LFE
Sampling rate                            : 48.0 kHz
Frame rate                               : 93.750 FPS (512 SPF)
Bit depth                                : 16 bits
Compression mode                         : Lossy
Stream size                              : 1.55 GiB (7%)
Title                                    : DTS 5.1 1509Kbps (Одноголосый - Яроцкий aka kyberpunk)
Language                                 : Russian
Default                                  : No
Forced                                   : No

Audio #7
ID                                       : 8
Format                                   : DTS
Format/Info                              : Digital Theater Systems
Codec ID                                 : A_DTS
Duration                                 : 2 h 27 min
Bit rate mode                            : Constant
Bit rate                                 : 1 509 kb/s
Channel(s)                               : 6 channels
Channel positions                        : Front: L C R, Side: L R, LFE
Sampling rate                            : 48.0 kHz
Frame rate                               : 93.750 FPS (512 SPF)
Bit depth                                : 16 bits
Compression mode                         : Lossy
Stream size                              : 1.55 GiB (7%)
Title                                    : DTS 5.1 1509Kbps (Оригинал - BluRay)
Language                                 : English
Default                                  : No
Forced                                   : No

Audio #8
ID                                       : 9
Format                                   : E-AC-3
Format/Info                              : Enhanced Audio Coding 3
Codec ID                                 : A_EAC3
Duration                                 : 2 h 27 min
Bit rate mode                            : Constant
Bit rate                                 : 640 kb/s
Channel(s)                               : 6 channels
Channel positions                        : Front: L C R, Side: L R, LFE
Sampling rate                            : 48.0 kHz
Frame rate                               : 187.500 FPS (256 SPF)
Compression mode                         : Lossy
Stream size                              : 675 MiB (3%)
Title                                    : E-AC3 5.1 640Kbps (Оригинал - Amazon)
Language                                 : English
Service kind                             : Complete Main
Default                                  : No
Forced                                   : No

Text #1
ID                                       : 10
Format                                   : UTF-8
Codec ID                                 : S_TEXT/UTF8
Codec ID/Info                            : UTF-8 Plain Text
Duration                                 : 2 h 20 min
Bit rate                                 : 108 b/s
Count of elements                        : 1948
Stream size                              : 111 KiB (0%)
Language                                 : Russian
Default                                  : No
Forced                                   : No

Text #2
ID                                       : 11
Format                                   : UTF-8
Codec ID                                 : S_TEXT/UTF8
Codec ID/Info                            : UTF-8 Plain Text
Duration                                 : 2 h 20 min
Bit rate                                 : 69 b/s
Count of elements                        : 1916
Stream size                              : 71.0 KiB (0%)
Language                                 : English
Default                                  : No
Forced                                   : No

Text #3
ID                                       : 12
Format                                   : UTF-8
Codec ID                                 : S_TEXT/UTF8
Codec ID/Info                            : UTF-8 Plain Text
Duration                                 : 2 h 25 min
Bit rate                                 : 78 b/s
Count of elements                        : 2258
Stream size                              : 83.6 KiB (0%)
Title                                    : SDH
Language                                 : English
Default                                  : No
Forced                                   : No
WEB-DL.................................BluRay



Скриншотыскриншот  скриншот  скриншот  скриншот  pb.wtf



Скачать Плохие парни 2 через торрент http://i6.imageban.ru/out/2017/11/03/f34f2e7708777e7d079104ce34eb23ad.jpg Скачать фильм Плохие парни 2 через торрент бесплантно в хорошем качестве Описание:Детективы отдела по борьбе с незаконным оборотом наркотиков Майк Лоури и Маркус Бэрнетт получают задание расследовать схему ... 10 10 4
Торрент: Зарегистрирован [2017-11-04 12:42] · скачан: 47 раз
Статус: √ проверено
Размер: 22.03 GB
Как cкачать? Как скачать Плохие парни 2 через торрент | qTorrent

% Раздел Тема Автор DL S | L
Ultra HD (UHD: 2K, 4K, 8K) — видео сверхвысокой чёткости [ 39.4 GB ] Плохие парни 2 / Bad Boys II [2003 UHD BDRip 2160p] DUB + 3xAVO + MVO + DVO + VO sheker187 Скачать
3 | 0
Ultra HD (UHD: 2K, 4K, 8K) — видео сверхвысокой чёткости [ 70.5 GB ] Плохие парни 2 / Bad Boys II [2003 UHD BD Remux 2160p] [HDR] MVO+DVO+3xAVO+VO+DUB [] bober100 Скачать
1 | 0
Фильмы [HD 720p, 1080p] (Хороший звук DUB, MVO) [ 10.79 GB ] Плохие парни 2 / Bad Boys II [2003 BDRip-HEVC 1080p ] DUB+MVO+2xAVO bober100 Скачать
2 | 0


Последний раз редактировалось: bober100 (2019-02-13 21:02), всего редактировалось 1 раз

28-11-2019 20:33  

Отключить всю рекламу на сайте

13-02-2019 17:10 Плохие парни 2 Скачать торрент  

Спасибо, а есть возможность, сделать Open Matte, с чуть меньшем объёмом? Заранее спасибо!pb.wtf



    Дорогой пользователь! Огромная просьба, поблагодарите релизера, оцените раздачу и оставьте свои комментарий, если Вы скачали Плохие парни 2 через торрент бесплатно! Внесите свою лепту в развитие PiratBit!
    Комментировать посты могут только пользователи прошедшие не сложную регистрацию
    Показать сообщения:    

    Плохие парни 2 через торрент
    Скачать бесплатно Плохие парни 2
    Плохие парни 2 скачать торрент
    Плохие парни 2 смотреть онлайн
    Cкачать фильм Плохие парни 2 бесплатно
    Плохие парни 2 скачать торрент в хорошем качестве
    Плохие парни 2 смотреть онлайн бесплатно в хорошем качестве


    Вы не можете начинать темы
    Вы не можете отвечать на сообщения
    Вы не можете редактировать свои сообщения
    Вы не можете удалять свои сообщения
    Вы не можете голосовать в опросах
    Вы не можете прикреплять файлы к сообщениям
    Вы можете скачивать файлы