Ссылка на приватное зеркало нашего сайта всего за 1$. Внимание количество ограничено!!!

2 сезон

iTunes

1 сезон

1

2 сезон

2 сезон

iTunes

1 сезон

RePack

30

Ultimate

ВАЖНО

ИГРА 18+

pack

RePack

MK11
pack

Забери бонус

RePack

jed

!!Акция!!

Alien_Rage

RePack

fifa19

RePack

Assassins Creed: Odyssey

RePack

NEED FOR SPEED™ PAYBACK

4 сезон

9 сезон

Бесстыжие 9 сезон

Все сериалы

все сериалы на PB.wtf

RePack

FAR CRY 5
  

Порох / Gunpowder / Сезон 1 / Серии 1-3 из 3 (Дж. Блэйксон) [2017, драма, HDTVRip 720p] MVO [BaibaKo] pb.wtf

Порох через торрент pb.wtf

Размер: 5.2 GB | Добавлен: 3 года назад | Торрент скачан:38 раз
Скачать  

05-11-2017 00:05 Порох Скачать торрент  

Порох / GunpowderГод выпуска: 2017
Страна: Великобритания
Жанр: драма
Продолжительность: ~ 01:00:00
Перевод: Профессиональный многоголосый -
Субтитры: отсутствуют

Режиссер: Дж. Блэйксон

rating

В ролях:

Кит Харингтон, Марк Бёрнс, Мартин Линдли, Дэннис О’Доннелл, Шон Ригби, Хью Александер, Том Эшли, Дэвид Бамбер, Скотт Берри, Люк Бротон, Педро Касабланк и др.

Описание:

Сериал посвящен Пороховому заговору 1605 года — попытке группы английских католиков убить короля Якова I, симпатизировавшего протестантам.

Качество: HDTVRip 720p
Формат: MKV
Видео кодек: H.264
Аудио кодек: AC3

Видео: MPEG-4 AVC, ~ 2929 Кбит/с, 1280x528
Аудио#1: Русский (AC3, 2 ch, 384 Кбит/с)
Аудио#2: английский (AC3, 2 ch, 384 Кбит/с)
скриншот   скриншот   скриншот   скриншот   скриншот  

Общее
Уникальный идентификатор : 241920657349674497417295694604517238239 (0xB600394BF9F6DE0EB48B594E60C3E5DF)
Полное имя : D:\Gunpowder.s01.HDTV720p.Rus.Eng.BaibaKo.tv\Gunpowder.s01e01.HDTV720p.Rus.Eng.BaibaKo.tv.mkv
Формат : Matroska
Версия формата : Version 4 / Version 2
Размер файла : 1,54 Гбайт
Продолжительность : 59 м. 25 с.
Общий поток : 3699 Кбит/сек
Дата кодирования : UTC 2017-10-22 18:19:16
Программа кодирования : mkvmerge v13.0.0 ('The Juggler') 64bit
Библиотека кодирования : libebml v1.3.4 + libmatroska v1.4.5
Writing frontend : StaxRip v1.6.0.0

Видео
Идентификатор : 1
Формат : AVC
Формат/Информация : Advanced Video Codec
Профиль формата : High@L3.1
Параметр CABAC формата : Да
Параметр ReFrames формата : 3 кадра
Идентификатор кодека : V_MPEG4/ISO/AVC
Продолжительность : 59 м. 25 с.
Битрейт : 2929 Кбит/сек
Ширина : 1280 пикселей
Высота : 528 пикселей
Соотношение сторон : 2,40:1
Режим частоты кадров : Постоянный
Частота кадров : 25,000 кадров/сек
Цветовое пространство : YUV
Субдискретизация насыщенности : 4:2:0
Битовая глубина : 8 бит
Тип развёртки : Прогрессивная
Бит/(Пиксели*Кадры) : 0.173
Размер потока : 1,22 Гбайт (79%)
Default : Да
Forced : Нет

Аудио #1
Идентификатор : 2
Формат : AC-3
Формат/Информация : Audio Coding 3
Расширение режима : CM (complete main)
Параметр Endianness формата : Big
Идентификатор кодека : A_AC3
Продолжительность : 59 м. 25 с.
Вид битрейта : Постоянный
Битрейт : 384 Кбит/сек
Каналы : 2 канала
Расположение каналов : Front: L R
Частота : 48,0 КГц
Частота кадров : 31,250 кадров/сек (1536 spf)
Метод сжатия : С потерями
Размер потока : 163 Мбайт (10%)
Язык : Russian
Default : Нет
Forced : Нет

Аудио #2
Идентификатор : 3
Формат : AC-3
Формат/Информация : Audio Coding 3
Расширение режима : CM (complete main)
Параметр Endianness формата : Big
Идентификатор кодека : A_AC3
Продолжительность : 59 м. 25 с.
Вид битрейта : Постоянный
Битрейт : 384 Кбит/сек
Каналы : 2 канала
Расположение каналов : Front: L R
Частота : 48,0 КГц
Частота кадров : 31,250 кадров/сек (1536 spf)
Метод сжатия : С потерями
Размер потока : 163 Мбайт (10%)
Язык : English
Default : Нет
Forced : Нет

pb.wtf



Скачать Порох через торрент http://s011.radikal.ru/i317/1711/1b/defe542f1899.jpg Скачать фильм Порох через торрент бесплантно в хорошем качестве Описание: Сериал посвящен Пороховому заговору 1605 года — попытке группы английских католиков убить короля Якова I, симпатизировавшего ... 10 10 4
Торрент: Зарегистрирован [2017-11-05 00:05] · скачан: 38 раз
Статус: √ проверено
Размер: 5.2 GB
Как cкачать? Как скачать Порох через торрент | qTorrent

% Раздел Тема Автор DL S | L
Зарубежные сериалы [ 3.5 GB ] Порох / Gunpowder / Сезон: 1 / Серии 1-3 из 3 [2017 WEB-DL 720p] [DVO] [Кубик в Кубе] killermax2013 Скачать
1 | 0
Зарубежные сериалы [ 3.5 GB ] Порох / Gunpowder / Сезон: 1 / Серии 1-3 из 3 [2017 исторический WEBRip 720p] [MVO] killermax2013 Скачать
1 | 0
Зарубежные сериалы [ 6.61 GB ] Порох / Gunpowder / Сезон: 1 / Серии 1-3 из 3 [2017 исторический WEB-DL 1080p] [MVO] killermax2013 Скачать
1 | 0
Зарубежные сериалы [ 3.4 GB ] Порох / Gunpowder / Сезон: 1 / Серии 1-3 из 3 [2017 исторический WEB-DL 720p] [MVO] killermax2013 Скачать
1 | 0
Зарубежные сериалы [ 2.35 GB ] Порох / Gunpowder / Сезон 1 / Серии 1-3 из 3 [2017 HDTVRip] MVO [BaibaKo] bober100 Скачать
1 | 0
Фильмы с украинским озвучиванием [ 1.27 GB ] Порох / Gunpowder / Сезон: 1 / Серии 1-3 из 3 [2017 HDTVRip-AVC WEBRip-AVC] [Ukr MVO] killermax2013 Скачать
1 | 0

28-11-2019 20:33  

Отключить всю рекламу на сайте

    Дорогой пользователь! Огромная просьба, поблагодарите релизера, оцените раздачу и оставьте свои комментарий, если Вы скачали Порох через торрент бесплатно! Внесите свою лепту в развитие PiratBit!
    Комментировать посты могут только пользователи прошедшие не сложную регистрацию
    Показать сообщения:    

    Порох через торрент
    Скачать бесплатно Порох
    Порох скачать торрент
    Порох смотреть онлайн
    Cкачать фильм Порох бесплатно
    Порох скачать торрент в хорошем качестве
    Порох смотреть онлайн бесплатно в хорошем качестве


    Вы не можете начинать темы
    Вы не можете отвечать на сообщения
    Вы не можете редактировать свои сообщения
    Вы не можете удалять свои сообщения
    Вы не можете голосовать в опросах
    Вы не можете прикреплять файлы к сообщениям
    Вы можете скачивать файлы