Ссылка на приватное зеркало нашего сайта всего за 1$. Внимание количество ограничено!!!

2 сезон

iTunes

1 сезон

1

iTunes

iTunes

iTunes

1 сезон

RePack

30

ИГРА 18+

pack

ВАЖНО

!!Акция!!

Alien_RageХит недели

RePack

MK11
pack

Забери бонус

RePack

jed

!!Акция!!

Alien_Rage

RePack

fifa19

RePack

Assassins Creed: Odyssey

RePack

NEED FOR SPEED™ PAYBACK

4 сезон

9 сезон

Бесстыжие 9 сезон

Все сериалы

все сериалы на PB.wtf

RePack

FAR CRY 5
  

Стена / 1-4 серии из 4 (Дмитрий Месхиев) [2016, история, военный, приключения, WEB-DLRip-AVC] pb.wtf

Стена через торрент pb.wtf

Размер: 2.44 GB | Добавлен: 2 года 11 мес. назад | Торрент скачан:205 раз
Скачать  

05-11-2017 06:07 Стена Скачать торрент  

Стена (1-4 серии из 4)Год выпуска: 2016
Страна: Россия
Жанр: история, военный, приключения
Продолжительность: 4 x ~ 00:45:00
Субтитры: отсутствуют

Режиссер: Дмитрий Месхиев



В ролях:

Алексей Серебряков, Анатолий Белый, Павел Чинарёв, Николай Аузин, Алиса Горшкова, Максим Белбородов, Ольга Павловец, Алёна Кучкова, Денис Кугай, Кирилл Полухин, Алексей Севастьянов (II), Фома Бызгу, Виктор Яковлев, Роман Агеев, Виталий Коваленко, Ольга Турчак, Константин Воробьёв, Сергей Бызгу

Описание:

По мотивам историко-приключенческого романа Владимира Мединского «Стена».
1609 год. Польский король Сигизмунд III идет войной на Москву, и его первая цель – Смоленск. В пограничном городе Орше оказывается молодой служащий посольского приказа Григорий Колдырев. Он узнает, что на самом деле Сигизмунд охотится за сокровищами ордена госпитальеров, спрятанных в Смоленске. Ходит легенда, что нашедший сокровища сможет полностью изменить ход истории. Григорий спешит в Смоленск. В городе свои заботы – воевода Михаил Шеин готовится к обороне и непростому военному времени, переводит посадских людей в крепость. Тут еще и сбегает его приемный сын, Санька. Но самое страшное – он подозревает, что в крепости завелся предатель, который выдаст армии врага план тайных ходов, которые делают крепость почти неприступной. Его правая рука, Андрей Дедюшин, сын строителя крепости и без пяти минут зять воеводы, старается развеять его опасения. Прибыв в Смоленск, Григорий начинает распутывать историю о сокровищах и ищет предателя крепости. Но все местные настроены против него – подозрительный чужак, которому почему-то с полуслова доверяет сам воевода, и в которого в первого взгляда влюбляется дочь воеводы Катя…

Качество: WEB-DLRip-AVC
Формат: MKV
Видео кодек: H.264
Аудио кодек: AC3

Видео: 1024x576 (16:9), 25 fps, AVC MPEG-4 (x264), High@L3.1 ~ 1800 kbps , 0.122 bit/pixel
Аудио#1: 44 kHz, AC3, 2 ch, ~ 192 kbps avg
скриншот   скриншот   скриншот   скриншот   скриншот   скриншот  

Общее
Уникальный идентификатор : 200567208174705009581461357769011509877 (0x96E3D6D65FA31C0AA40C8DEA1AE03A75)
Полное имя : C:\Стена\Стена (1 сер.).mkv
Формат : Matroska
Версия формата : Version 2
Размер файла : 625 Мбайт
Продолжительность : 43 м. 54 с.
Общий поток : 1990 Кбит/сек
Дата кодирования : UTC 2017-10-02 08:39:38
Программа кодирования : mkvmerge v7.8.0 ('River Man') 32bit built on Apr 3 2015 12:11:22
Библиотека кодирования : libebml v1.3.1 + libmatroska v1.4.2

Видео
Идентификатор : 1
Формат : AVC
Формат/Информация : Advanced Video Codec
Профиль формата : High@L3.1
Настройки формата : CABAC / 4 Ref Frames
Параметр CABAC формата : Да
Параметр RefFrames формата : 4 кадра
Идентификатор кодека : V_MPEG4/ISO/AVC
Продолжительность : 43 м. 54 с.
Битрейт : 1800 Кбит/сек
Ширина : 1024 пикселя
Высота : 576 пикселей
Соотношение сторон : 16:9
Режим частоты кадров : Постоянный
Частота кадров : 25,000 кадров/сек
Цветовое пространство : YUV
Субдискретизация насыщенности : 4:2:0
Битовая глубина : 8 бит
Тип развёртки : Прогрессивная
Бит/(Пиксели*Кадры) : 0.122
Размер потока : 552 Мбайт (88%)
Библиотека кодирования : x264 core 148 r2744 b97ae06
Настройки программы : cabac=1 / ref=3 / deblock=1:0:0 / analyse=0x3:0x113 / me=umh / subme=7 / psy=1 / psy_rd=1.00:0.00 / mixed_ref=1 / me_range=16 / chroma_me=1 / trellis=1 / 8x8dct=1 / cqm=0 / deadzone=21,11 / fast_pskip=1 / chroma_qp_offset=-2 / threads=4 / lookahead_threads=1 / sliced_threads=0 / nr=0 / decimate=1 / interlaced=0 / bluray_compat=0 / stitchable=1 / constrained_intra=0 / bframes=3 / b_pyramid=2 / b_adapt=1 / b_bias=0 / direct=1 / weightb=1 / open_gop=0 / weightp=2 / keyint=250 / keyint_min=25 / scenecut=40 / intra_refresh=0 / rc_lookahead=40 / rc=2pass / mbtree=1 / bitrate=1800 / ratetol=1.0 / qcomp=0.60 / qpmin=0 / qpmax=69 / qpstep=4 / cplxblur=20.0 / qblur=0.5 / ip_ratio=1.40 / aq=1:1.00
Default : Да
Forced : Нет

Аудио
Идентификатор : 2
Формат : AC-3
Формат/Информация : Audio Coding 3
Параметр Endianness формата : Big
Идентификатор кодека : A_AC3
Продолжительность : 43 м. 54 с.
Вид битрейта : Постоянный
Битрейт : 192 Кбит/сек
Каналы : 2 канала
Расположение каналов : Front: L R
Частота : 44,1 КГц
Частота кадров : 28,711 кадров/сек (1536 SPF)
Битовая глубина : 16 бит
Метод сжатия : С потерями
Размер потока : 60,3 Мбайт (10%)
ServiceKind/String : Complete Main
Default : Да
Forced : Нет

pb.wtf



Скачать Стена через торрент http://s019.radikal.ru/i629/1710/fe/6a881ff60933.jpg Скачать фильм Стена через торрент бесплантно в хорошем качестве Описание: По мотивам историко-приключенческого романа Владимира Мединского «Стена». 1609 год. Польский король Сигизмунд III идет войной на ... 9.9 10 9
Торрент: Зарегистрирован [2017-11-05 06:07] · скачан: 205 раз
Статус: √ проверено
Размер: 2.44 GB
Как cкачать? Как скачать Стена через торрент | qTorrent

% Раздел Тема Автор DL S | L
Наши сериалы [ 2.03 GB ] Стена / Серии: 1-4 из 4 [2016 исторический экранизация SATRip-AVC] aleksan55 Скачать
1 | 0

28-11-2019 20:33  

Отключить всю рекламу на сайте

    Дорогой пользователь! Огромная просьба, поблагодарите релизера, оцените раздачу и оставьте свои комментарий, если Вы скачали Стена через торрент бесплатно! Внесите свою лепту в развитие PiratBit!
    Комментировать посты могут только пользователи прошедшие не сложную регистрацию
    Показать сообщения:    

    Стена через торрент
    Скачать бесплатно Стена
    Стена скачать торрент
    Стена смотреть онлайн
    Cкачать фильм Стена бесплатно
    Стена скачать торрент в хорошем качестве
    Стена смотреть онлайн бесплатно в хорошем качестве


    Вы не можете начинать темы
    Вы не можете отвечать на сообщения
    Вы не можете редактировать свои сообщения
    Вы не можете удалять свои сообщения
    Вы не можете голосовать в опросах
    Вы не можете прикреплять файлы к сообщениям
    Вы можете скачивать файлы