MEGA NEWS Получи личный уникальный адрес сайта и защити себя от блокировок. Внимание количество ограничено!!!

iTunes

1+1

iTunes

мы

iTunes

1

iTunes

Чернобыль

iTunes

Ральф против интернета

Лицензия

ПШазам

Лицензия

Игра престолов

Лицензия

30
pack

ВАЖНО

!!Акция!!

Alien_RageХит недели

RePack

Resident Evil 21

ИГРА 18+

pack

RePack

Metro:Exodus

!!Акция!!

Alien_Rage

RePack

fifa19

RePack

Assassins Creed: Odyssey

RePack

NEED FOR SPEED™ PAYBACK

3 сезон

9 сезон

Бесстыжие 9 сезон

Все сериалы

все сериалы на PB.wtf

RePack

FAR CRY 5
Ребята, катастрофически не хватает 1900р. для оплаты серверов за АВГУСТ (всвязи с блокировками трафик упал в 3 раза), 1-2р., выручайте.
  

Смертельная забава / The Funhouse (Тоуб Хупер) [1981 г., ужасы, BDRip-AVC] MVO, VO pb.wtf

Смертельная забава через торрент pb.wtf

Размер: 2.9 GB | Добавлен: 1 год 11 мес. назад | Торрент скачан:21 раз
Скачать  

05-11-2017 07:58 Смертельная забава Скачать торрент  

Смертельная забава / The Funhouse
Год выпуска: 1981
Страна: США
Жанр: ужасы
Продолжительность: 01:35:14
Перевод: Профессиональный (многоголосый), Любительский (одноголосый) [Андрей Васильев]
Субтитры: Английские

Режиссер: Тоуб Хупер

rating

В ролях: Элизабет Берридж, Шон Карсон, Джинн Остин, Джек МакДермотт, Купер Хукаби, Ларго Вудрафф, Майлз Чэпин, Дэвид Карсон, Соня Зомина, Ральф Морино

Описание: Четверо подростков и маленький мальчик Джои решают провести ночь в карнавальном поезде-призраке на ярмарке. Они даже не подозревали, что обезображенный сын оператора карусели впал в ярость из-за отказа гадалки вернуть ему деньги и убил ее. Подростки стали невольными свидетелями убийства и вскоре с ужасом поняли, что жить им осталось совсем немного…

Качество: BDRip-AVC
Формат: MKV
Видео: MPEG-4 AVC, 3393 Kбит/с, 1024x436, 23.976 Кадр/с
Аудио#1: AC3, 6 ch, 384 Кбит/с | Профессиональный многоголосый
Аудио#2: AC3, 2 ch, 192 Кбит/с | Любительский одноголосый (Андрей Васильев)
Аудио#3: AC3, 2 ch, 384 Кбит/с | Aнглийский
Релиз от: Koenig
скриншот   скриншот   скриншот   скриншот   скриншот  

скриншот  

Общее
Уникальный идентификатор : 180282360265710899931615621976788859052 (0x87A11E9EA2285BFD9CFA99EA54F878AC)
Полное имя : The Funhouse.1981.BDRip-AVC.mkv
Формат : Matroska
Версия формата : Version 4 / Version 2
Размер файла : 2,90 Гбайт
Продолжительность : 1 ч. 35 м.
Общий поток : 4354 Кбит/сек
Название фильма : The Funhouse.1981.BDRip-AVC by Koenig
Дата кодирования : UTC 2017-11-05 06:53:53
Программа кодирования : mkvmerge v12.0.0 ('Trust / Lust') 32bit
Библиотека кодирования : libebml v1.3.4 + libmatroska v1.4.5
Обложка : Yes
Attachments : cover.jpg

Видео
Идентификатор : 1
Формат : AVC
Формат/Информация : Advanced Video Codec
Профиль формата : High@L4.1
Параметр CABAC формата : Да
Параметр ReFrames формата : 11 кадров
Идентификатор кодека : V_MPEG4/ISO/AVC
Продолжительность : 1 ч. 35 м.
Битрейт : 3393 Кбит/сек
Ширина : 1024 пикселя
Высота : 436 пикселей
Соотношение сторон : 2,35:1
Режим частоты кадров : Постоянный
Частота кадров : 23,976 (24000/1001) кадра/сек
Цветовое пространство : YUV
Субдискретизация насыщенности : 4:2:0
Битовая глубина : 8 бит
Тип развёртки : Прогрессивная
Бит/(Пиксели*Кадры) : 0.317
Размер потока : 2,26 Гбайт (78%)
Заголовок : The Funhouse.1981.BDRip-AVC
Библиотека кодирования : x264 core 148 r2744 b97ae06
Настройки программы : cabac=1 / ref=11 / deblock=1:-3:-3 / analyse=0x3:0x133 / me=umh / subme=10 / psy=1 / psy_rd=1.08:0.08 / mixed_ref=1 / me_range=32 / chroma_me=1 / trellis=2 / 8x8dct=1 / cqm=0 / deadzone=21,11 / fast_pskip=0 / chroma_qp_offset=-3 / threads=3 / lookahead_threads=1 / sliced_threads=0 / nr=0 / decimate=1 / interlaced=0 / bluray_compat=0 / constrained_intra=0 / bframes=14 / b_pyramid=2 / b_adapt=2 / b_bias=0 / direct=3 / weightb=1 / open_gop=0 / weightp=2 / keyint=240 / keyint_min=23 / scenecut=40 / intra_refresh=0 / rc_lookahead=40 / rc=2pass / mbtree=1 / bitrate=3393 / ratetol=1.0 / qcomp=0.60 / qpmin=10 / qpmax=51 / qpstep=4 / cplxblur=20.0 / qblur=0.5 / vbv_maxrate=50000 / vbv_bufsize=62500 / nal_hrd=none / filler=0 / ip_ratio=1.40 / aq=1:1.00
Default : Да
Forced : Нет

Аудио #1
Идентификатор : 2
Формат : AC-3
Формат/Информация : Audio Coding 3
Параметр Endianness формата : Big
Идентификатор кодека : A_AC3
Продолжительность : 1 ч. 35 м.
Вид битрейта : Постоянный
Битрейт : 384 Кбит/сек
Каналы : 6 каналов
Расположение каналов : Front: L C R, Side: L R, LFE
Частота : 48,0 КГц
Частота кадров : 31,250 кадров/сек (1536 spf)
Битовая глубина : 16 бит
Метод сжатия : С потерями
Размер потока : 261 Мбайт (9%)
Заголовок : MVO
Язык : Russian
ServiceKind/String : Complete Main
Default : Да
Forced : Нет

Аудио #2
Идентификатор : 3
Формат : AC-3
Формат/Информация : Audio Coding 3
Параметр Endianness формата : Big
Идентификатор кодека : A_AC3
Продолжительность : 1 ч. 35 м.
Вид битрейта : Постоянный
Битрейт : 192 Кбит/сек
Каналы : 2 канала
Расположение каналов : Front: L R
Частота : 48,0 КГц
Частота кадров : 31,250 кадров/сек (1536 spf)
Битовая глубина : 16 бит
Метод сжатия : С потерями
Размер потока : 131 Мбайт (4%)
Заголовок : VO - Андрей Васильев
Язык : Russian
ServiceKind/String : Complete Main
Default : Нет
Forced : Нет

Аудио #3
Идентификатор : 4
Формат : AC-3
Формат/Информация : Audio Coding 3
Параметр Endianness формата : Big
Идентификатор кодека : A_AC3
Продолжительность : 1 ч. 35 м.
Вид битрейта : Постоянный
Битрейт : 384 Кбит/сек
Каналы : 2 канала
Расположение каналов : Front: L R
Частота : 48,0 КГц
Частота кадров : 31,250 кадров/сек (1536 spf)
Битовая глубина : 16 бит
Метод сжатия : С потерями
Размер потока : 262 Мбайт (9%)
Язык : English
ServiceKind/String : Complete Main
Default : Нет
Forced : Нет

Текст
Идентификатор : 5
Формат : UTF-8
Идентификатор кодека : S_TEXT/UTF8
Идентификатор кодека/Информация : UTF-8 Plain Text
Продолжительность : 1 ч. 15 м.
Битрейт : 39 бит/сек
ElementCount : 706
Размер потока : 21,8 Кбайт (0%)
Язык : English
Default : Да
Forced : Нет

pb.wtf



Скачать Смертельная забава через торрент http://pic1.kartinco.top/images/11/4d93e.jpg Скачать фильм Смертельная забава через торрент бесплантно в хорошем качестве Описание: Четверо подростков и маленький мальчик Джои решают провести ночь в карнавальном поезде-призраке на ярмарке. Они даже не ... 10 10 2
Торрент: Зарегистрирован [2017-11-05 07:58] · скачан: 21 раз
Статус: √ проверено
Размер: 2.9 GB
Как cкачать? Как скачать Смертельная забава через торрент | qTorrent


>> Регистрируемся здесь <<






Отзывы и комментарии о схеме читаем и пишем здесь: ---> Отзывы и комментарии о схеме

Новые благодарочки в телеграм довольных пользователей:
скриншот   скриншот   скриншот   скриншот   скриншот
    Дорогой пользователь! Огромная просьба, поблагодарите релизера, оцените раздачу и оставьте свои комментарий, если Вы скачали Смертельная забава через торрент бесплатно! Внесите свою лепту в развитие PiratBit!
    Комментировать посты могут только пользователи прошедшие не сложную регистрацию
    Показать сообщения:    

    Смертельная забава через торрент
    Скачать бесплатно Смертельная забава
    Смертельная забава скачать торрент
    Смертельная забава смотреть онлайн
    Cкачать фильм Смертельная забава бесплатно
    Смертельная забава скачать торрент в хорошем качестве
    Смертельная забава смотреть онлайн бесплатно в хорошем качестве


    Вы не можете начинать темы
    Вы не можете отвечать на сообщения
    Вы не можете редактировать свои сообщения
    Вы не можете удалять свои сообщения
    Вы не можете голосовать в опросах
    Вы не можете прикреплять файлы к сообщениям
    Вы можете скачивать файлы